  0
SECTION
  2
HEADER
  9
$ACADVER
  1
AC1015
  9
$ACADMAINTVER
 70
     6
  9
$DWGCODEPAGE
  3
ANSI_1252
  9
$INSBASE
 10
0.0
 20
0.0
 30
0.0
  9
$EXTMIN
 10
2911.699298947226
 20
738.1925014954597
 30
0.0
  9
$EXTMAX
 10
3466.699298947226
 20
1139.19250149546
 30
0.0
  9
$LIMMIN
 10
0.0
 20
0.0
  9
$LIMMAX
 10
12.0
 20
9.0
  9
$ORTHOMODE
 70
     0
  9
$REGENMODE
 70
     1
  9
$FILLMODE
 70
     1
  9
$QTEXTMODE
 70
     0
  9
$MIRRTEXT
 70
     1
  9
$LTSCALE
 40
1.0
  9
$ATTMODE
 70
     1
  9
$TEXTSIZE
 40
0.2
  9
$TRACEWID
 40
0.05
  9
$TEXTSTYLE
  7
Standard
  9
$CLAYER
  8
0
  9
$CELTYPE
  6
ByLayer
  9
$CECOLOR
 62
   256
  9
$CELTSCALE
 40
1.0
  9
$DISPSILH
 70
     0
  9
$DIMSCALE
 40
1.0
  9
$DIMASZ
 40
0.18
  9
$DIMEXO
 40
0.0625
  9
$DIMDLI
 40
0.38
  9
$DIMRND
 40
0.0
  9
$DIMDLE
 40
0.0
  9
$DIMEXE
 40
0.18
  9
$DIMTP
 40
0.0
  9
$DIMTM
 40
0.0
  9
$DIMTXT
 40
0.18
  9
$DIMCEN
 40
0.09
  9
$DIMTSZ
 40
0.0
  9
$DIMTOL
 70
     0
  9
$DIMLIM
 70
     0
  9
$DIMTIH
 70
     1
  9
$DIMTOH
 70
     1
  9
$DIMSE1
 70
     0
  9
$DIMSE2
 70
     0
  9
$DIMTAD
 70
     0
  9
$DIMZIN
 70
     0
  9
$DIMBLK
  1

  9
$DIMASO
 70
     1
  9
$DIMSHO
 70
     1
  9
$DIMPOST
  1

  9
$DIMAPOST
  1

  9
$DIMALT
 70
     0
  9
$DIMALTD
 70
     2
  9
$DIMALTF
 40
25.4
  9
$DIMLFAC
 40
1.0
  9
$DIMTOFL
 70
     0
  9
$DIMTVP
 40
0.0
  9
$DIMTIX
 70
     0
  9
$DIMSOXD
 70
     0
  9
$DIMSAH
 70
     0
  9
$DIMBLK1
  1

  9
$DIMBLK2
  1

  9
$DIMSTYLE
  2
Standard
  9
$DIMCLRD
 70
     0
  9
$DIMCLRE
 70
     0
  9
$DIMCLRT
 70
     0
  9
$DIMTFAC
 40
1.0
  9
$DIMGAP
 40
0.09
  9
$DIMJUST
 70
     0
  9
$DIMSD1
 70
     0
  9
$DIMSD2
 70
     0
  9
$DIMTOLJ
 70
     1
  9
$DIMTZIN
 70
     0
  9
$DIMALTZ
 70
     0
  9
$DIMALTTZ
 70
     0
  9
$DIMUPT
 70
     0
  9
$DIMDEC
 70
     4
  9
$DIMTDEC
 70
     4
  9
$DIMALTU
 70
     2
  9
$DIMALTTD
 70
     2
  9
$DIMTXSTY
  7
Standard
  9
$DIMAUNIT
 70
     0
  9
$DIMADEC
 70
     0
  9
$DIMALTRND
 40
0.0
  9
$DIMAZIN
 70
     0
  9
$DIMDSEP
 70
    46
  9
$DIMATFIT
 70
     3
  9
$DIMFRAC
 70
     0
  9
$DIMLDRBLK
  1

  9
$DIMLUNIT
 70
     2
  9
$DIMLWD
 70
    -2
  9
$DIMLWE
 70
    -2
  9
$DIMTMOVE
 70
     0
  9
$LUNITS
 70
     2
  9
$LUPREC
 70
     4
  9
$SKETCHINC
 40
0.1
  9
$FILLETRAD
 40
0.5
  9
$AUNITS
 70
     0
  9
$AUPREC
 70
     0
  9
$MENU
  1
.
  9
$ELEVATION
 40
0.0
  9
$PELEVATION
 40
0.0
  9
$THICKNESS
 40
0.0
  9
$LIMCHECK
 70
     0
  9
$CHAMFERA
 40
0.5
  9
$CHAMFERB
 40
0.5
  9
$CHAMFERC
 40
1.0
  9
$CHAMFERD
 40
0.0
  9
$SKPOLY
 70
     0
  9
$TDCREATE
 40
2456238.437490787
  9
$TDUCREATE
 40
2456238.39582412
  9
$TDUPDATE
 40
2456238.437490799
  9
$TDUUPDATE
 40
2456238.395824132
  9
$TDINDWG
 40
0.0000000116
  9
$TDUSRTIMER
 40
0.0000000116
  9
$USRTIMER
 70
     1
  9
$ANGBASE
 50
0.0
  9
$ANGDIR
 70
     0
  9
$PDMODE
 70
     0
  9
$PDSIZE
 40
0.0
  9
$PLINEWID
 40
0.0
  9
$SPLFRAME
 70
     0
  9
$SPLINETYPE
 70
     6
  9
$SPLINESEGS
 70
     8
  9
$HANDSEED
  5
296
  9
$SURFTAB1
 70
     6
  9
$SURFTAB2
 70
     6
  9
$SURFTYPE
 70
     6
  9
$SURFU
 70
     6
  9
$SURFV
 70
     6
  9
$UCSBASE
  2

  9
$UCSNAME
  2

  9
$UCSORG
 10
0.0
 20
0.0
 30
0.0
  9
$UCSXDIR
 10
1.0
 20
0.0
 30
0.0
  9
$UCSYDIR
 10
0.0
 20
1.0
 30
0.0
  9
$UCSORTHOREF
  2

  9
$UCSORTHOVIEW
 70
     0
  9
$UCSORGTOP
 10
0.0
 20
0.0
 30
0.0
  9
$UCSORGBOTTOM
 10
0.0
 20
0.0
 30
0.0
  9
$UCSORGLEFT
 10
0.0
 20
0.0
 30
0.0
  9
$UCSORGRIGHT
 10
0.0
 20
0.0
 30
0.0
  9
$UCSORGFRONT
 10
0.0
 20
0.0
 30
0.0
  9
$UCSORGBACK
 10
0.0
 20
0.0
 30
0.0
  9
$PUCSBASE
  2

  9
$PUCSNAME
  2

  9
$PUCSORG
 10
0.0
 20
0.0
 30
0.0
  9
$PUCSXDIR
 10
1.0
 20
0.0
 30
0.0
  9
$PUCSYDIR
 10
0.0
 20
1.0
 30
0.0
  9
$PUCSORTHOREF
  2

  9
$PUCSORTHOVIEW
 70
     0
  9
$PUCSORGTOP
 10
0.0
 20
0.0
 30
0.0
  9
$PUCSORGBOTTOM
 10
0.0
 20
0.0
 30
0.0
  9
$PUCSORGLEFT
 10
0.0
 20
0.0
 30
0.0
  9
$PUCSORGRIGHT
 10
0.0
 20
0.0
 30
0.0
  9
$PUCSORGFRONT
 10
0.0
 20
0.0
 30
0.0
  9
$PUCSORGBACK
 10
0.0
 20
0.0
 30
0.0
  9
$USERI1
 70
     0
  9
$USERI2
 70
     0
  9
$USERI3
 70
     0
  9
$USERI4
 70
     0
  9
$USERI5
 70
     0
  9
$USERR1
 40
18.0
  9
$USERR2
 40
0.0
  9
$USERR3
 40
0.0
  9
$USERR4
 40
0.0
  9
$USERR5
 40
0.0
  9
$WORLDVIEW
 70
     1
  9
$SHADEDGE
 70
     3
  9
$SHADEDIF
 70
    70
  9
$TILEMODE
 70
     1
  9
$MAXACTVP
 70
    64
  9
$PINSBASE
 10
0.0
 20
0.0
 30
0.0
  9
$PLIMCHECK
 70
     0
  9
$PEXTMIN
 10
1.00000000000000E+20
 20
1.00000000000000E+20
 30
1.00000000000000E+20
  9
$PEXTMAX
 10
-1.00000000000000E+20
 20
-1.00000000000000E+20
 30
-1.00000000000000E+20
  9
$PLIMMIN
 10
0.0
 20
0.0
  9
$PLIMMAX
 10
12.0
 20
9.0
  9
$UNITMODE
 70
     0
  9
$VISRETAIN
 70
     1
  9
$PLINEGEN
 70
     0
  9
$PSLTSCALE
 70
     1
  9
$TREEDEPTH
 70
  3020
  9
$CMLSTYLE
  2
Standard
  9
$CMLJUST
 70
     0
  9
$CMLSCALE
 40
1.0
  9
$PROXYGRAPHICS
 70
     1
  9
$MEASUREMENT
 70
     1
  9
$CELWEIGHT
370
    -1
  9
$ENDCAPS
280
     0
  9
$JOINSTYLE
280
     0
  9
$LWDISPLAY
290
     0
  9
$INSUNITS
 70
     1
  9
$HYPERLINKBASE
  1

  9
$STYLESHEET
  1

  9
$XEDIT
290
     1
  9
$CEPSNTYPE
380
     0
  9
$PSTYLEMODE
290
     1
  9
$FINGERPRINTGUID
  2
{0834225D-3DBD-4A6B-84AB-5E1E63E7FCF3}
  9
$VERSIONGUID
  2
{FAEB1C32-E019-11D5-929B-00C0DF256EC4}
  9
$EXTNAMES
290
     1
  9
$PSVPSCALE
 40
0.0
  9
$OLESTARTUP
290
     0
  0
ENDSEC
  0
SECTION
  2
CLASSES
  0
CLASS
  1
ACDBDICTIONARYWDFLT
  2
AcDbDictionaryWithDefault
  3
ObjectDBX Classes
 90
        0
280
     0
281
     0
  0
CLASS
  1
VISUALSTYLE
  2
AcDbVisualStyle
  3
ObjectDBX Classes
 90
     4095
280
     0
281
     0
  0
CLASS
  1
MATERIAL
  2
AcDbMaterial
  3
ObjectDBX Classes
 90
     1153
280
     0
281
     0
  0
CLASS
  1
SCALE
  2
AcDbScale
  3
ObjectDBX Classes
 90
     1153
280
     0
281
     0
  0
CLASS
  1

  2
exOdDbPolyline
  3

 90
        0
280
     0
281
     1
  0
CLASS
  1

  2
exOdDbCircle
  3

 90
        0
280
     0
281
     1
  0
CLASS
  1

  2
exOdDbSpline
  3

 90
        0
280
     0
281
     1
  0
CLASS
  1
DICTIONARYVAR
  2
AcDbDictionaryVar
  3
ObjectDBX Classes
 90
        0
280
     0
281
     0
  0
CLASS
  1
ACDBPLACEHOLDER
  2
AcDbPlaceHolder
  3
ObjectDBX Classes
 90
        0
280
     0
281
     0
  0
CLASS
  1
LAYOUT
  2
AcDbLayout
  3
ObjectDBX Classes
 90
        0
280
     0
281
     0
  0
ENDSEC
  0
SECTION
  2
TABLES
  0
TABLE
  2
VPORT
  5
8
330
0
100
AcDbSymbolTable
 70
     1
  0
VPORT
  5
29
330
8
100
AcDbSymbolTableRecord
100
AcDbViewportTableRecord
  2
*Active
 70
     0
 10
0.0
 20
0.0
 11
1.0
 21
1.0
 12
3189.199298947226
 22
938.6925014954599
 13
0.0
 23
0.0
 14
0.5
 24
0.5
 15
0.5
 25
0.5
 16
0.0
 26
0.0
 36
1.0
 17
0.0
 27
0.0
 37
0.0
 40
441.1000000000003
 41
1.60267857142857
 42
50.0
 43
0.0
 44
0.0
 50
0.0
 51
0.0
 71
     0
 72
   100
 73
     1
 74
     3
 75
     0
 76
     0
 77
     0
 78
     0
281
     0
 65
     1
110
0.0
120
0.0
130
0.0
111
1.0
121
0.0
131
0.0
112
0.0
122
1.0
132
0.0
 79
     0
146
0.0
  0
ENDTAB
  0
TABLE
  2
LTYPE
  5
5
330
0
100
AcDbSymbolTable
 70
     8
  0
LTYPE
  5
14
330
5
100
AcDbSymbolTableRecord
100
AcDbLinetypeTableRecord
  2
ByBlock
 70
     0
  3

 72
    65
 73
     0
 40
0.0
  0
LTYPE
  5
15
330
5
100
AcDbSymbolTableRecord
100
AcDbLinetypeTableRecord
  2
ByLayer
 70
     0
  3

 72
    65
 73
     0
 40
0.0
  0
LTYPE
  5
16
330
5
100
AcDbSymbolTableRecord
100
AcDbLinetypeTableRecord
  2
Continuous
 70
     0
  3
Solid line
 72
    65
 73
     0
 40
0.0
  0
LTYPE
  5
3F
330
5
100
AcDbSymbolTableRecord
100
AcDbLinetypeTableRecord
  2
DASHED
 70
     0
  3
Dashed
 72
    65
 73
     2
 40
15.0
 49
7.0
 74
     0
 49
-8.0
 74
     0
  0
LTYPE
  5
40
330
5
100
AcDbSymbolTableRecord
100
AcDbLinetypeTableRecord
  2
DOTTED
 70
     0
  3
Dotted
 72
    65
 73
     2
 40
1.0
 49
0.0
 74
     0
 49
-1.0
 74
     0
  0
LTYPE
  5
41
330
5
100
AcDbSymbolTableRecord
100
AcDbLinetypeTableRecord
  2
DOT_CENTER
 70
     0
  3
Dot_Center
 72
    65
 73
     4
 40
14.0
 49
12.0
 74
     0
 49
-1.0
 74
     0
 49
0.0
 74
     0
 49
-1.0
 74
     0
  0
LTYPE
  5
42
330
5
100
AcDbSymbolTableRecord
100
AcDbLinetypeTableRecord
  2
LONG_DASHED
 70
     0
  3
Long_Dashed
 72
    65
 73
     2
 40
15.0
 49
10.0
 74
     0
 49
-5.0
 74
     0
  0
LTYPE
  5
43
330
5
100
AcDbSymbolTableRecord
100
AcDbLinetypeTableRecord
  2
DASH_CENTER
 70
     0
  3
Dash_Center
 72
    65
 73
     4
 40
14.0
 49
11.0
 74
     0
 49
-1.0
 74
     0
 49
1.0
 74
     0
 49
-1.0
 74
     0
  0
LTYPE
  5
44
330
5
100
AcDbSymbolTableRecord
100
AcDbLinetypeTableRecord
  2
PHANTOM
 70
     0
  3
Phantom
 72
    65
 73
     6
 40
13.0
 49
10.0
 74
     0
 49
-1.0
 74
     0
 49
0.0
 74
     0
 49
-1.0
 74
     0
 49
0.0
 74
     0
 49
-1.0
 74
     0
  0
LTYPE
  5
45
330
5
100
AcDbSymbolTableRecord
100
AcDbLinetypeTableRecord
  2
CENTER_DASH_DASH
 70
     0
  3
Center_Dash_Dash
 72
    65
 73
     6
 40
14.0
 49
9.0
 74
     0
 49
-1.0
 74
     0
 49
1.0
 74
     0
 49
-1.0
 74
     0
 49
1.0
 74
     0
 49
-1.0
 74
     0
  0
ENDTAB
  0
TABLE
  2
LAYER
  5
2
330
0
100
AcDbSymbolTable
 70
     5
  0
LAYER
  5
10
330
2
100
AcDbSymbolTableRecord
100
AcDbLayerTableRecord
  2
0
 70
     0
 62
     7
  6
Continuous
370
    -3
390
F
  0
LAYER
  5
46
330
2
100
AcDbSymbolTableRecord
100
AcDbLayerTableRecord
  2
1
 70
     0
 62
     7
  6
Continuous
370
    -3
390
F
  0
LAYER
  5
47
330
2
100
AcDbSymbolTableRecord
100
AcDbLayerTableRecord
  2
Schraffur
 70
     0
 62
     7
  6
Continuous
370
    -3
390
F
  0
LAYER
  5
48
330
2
100
AcDbSymbolTableRecord
100
AcDbLayerTableRecord
  2
Skizziergeometrie_ISO_
 70
     0
 62
     7
  6
Continuous
370
    -3
390
F
  0
LAYER
  5
49
330
2
100
AcDbSymbolTableRecord
100
AcDbLayerTableRecord
  2
Symbole_ISO_
 70
     0
 62
     7
  6
Continuous
370
    -3
390
F
  0
ENDTAB
  0
TABLE
  2
STYLE
  5
3
330
0
100
AcDbSymbolTable
 70
     6
  0
STYLE
  5
11
330
3
100
AcDbSymbolTableRecord
100
AcDbTextStyleTableRecord
  2
Standard
 70
     0
 40
0.0
 41
1.0
 50
0.0
 71
     0
 42
0.2
  3
txt
  4

  0
STYLE
  5
75
330
3
100
AcDbSymbolTableRecord
100
AcDbTextStyleTableRecord
  2
CONVERTER_11
 70
     0
 40
0.0
 41
0.67499998211861
 50
0.0
 71
     0
 42
0.2
  3
txt.shx
  4

  0
STYLE
  5
234
330
3
100
AcDbSymbolTableRecord
100
AcDbTextStyleTableRecord
  2
CONVERTER_12
 70
     0
 40
0.0
 41
0.9
 50
0.0
 71
     0
 42
0.2
  3
txt.shx
  4

  0
STYLE
  5
23A
330
3
100
AcDbSymbolTableRecord
100
AcDbTextStyleTableRecord
  2
CONVERTER_13
 70
     0
 40
0.0
 41
0.89999994635582
 50
0.0
 71
     0
 42
0.2
  3
txt.shx
  4

  0
STYLE
  5
23D
330
3
100
AcDbSymbolTableRecord
100
AcDbTextStyleTableRecord
  2
CONVERTER_14
 70
     0
 40
0.0
 41
0.9
 50
0.0
 71
     0
 42
0.2
  3
txt.shx
  4

  0
STYLE
  5
248
330
3
100
AcDbSymbolTableRecord
100
AcDbTextStyleTableRecord
  2
CONVERTER_15
 70
     0
 40
0.0
 41
0.95
 50
0.0
 71
     0
 42
0.2
  3
simplex.shx
  4

  0
ENDTAB
  0
TABLE
  2
VIEW
  5
6
330
0
100
AcDbSymbolTable
 70
     0
  0
ENDTAB
  0
TABLE
  2
UCS
  5
7
330
0
100
AcDbSymbolTable
 70
     0
  0
ENDTAB
  0
TABLE
  2
APPID
  5
9
330
0
100
AcDbSymbolTable
 70
     1
  0
APPID
  5
12
330
9
100
AcDbSymbolTableRecord
100
AcDbRegAppTableRecord
  2
ACAD
 70
     0
  0
ENDTAB
  0
TABLE
  2
DIMSTYLE
  5
A
330
0
100
AcDbSymbolTable
 70
     4
100
AcDbDimStyleTable
  0
DIMSTYLE
105
27
330
A
100
AcDbSymbolTableRecord
100
AcDbDimStyleTableRecord
  2
Standard
 70
     0
340
11
  0
DIMSTYLE
105
24C
102
{ACAD_REACTORS
330
24D
102
}
330
A
100
AcDbSymbolTableRecord
100
AcDbDimStyleTableRecord
  2
ME10_DIM_10
 70
     0
 41
6.0
 42
1.0
 44
2.0
 73
     0
 74
     0
 78
     8
140
6.0
147
4.0
172
     1
173
     1
174
     1
175
     1
176
     2
177
     2
178
     4
271
     0
340
248
  0
DIMSTYLE
105
258
102
{ACAD_REACTORS
330
259
102
}
330
A
100
AcDbSymbolTableRecord
100
AcDbDimStyleTableRecord
  2
ME10_DIM_11
 70
     0
 41
6.0
 42
1.0
 44
2.0
 73
     0
 74
     0
 78
     8
140
6.0
147
4.0
172
     1
173
     1
174
     1
175
     1
176
     2
177
     2
178
     4
271
     0
340
248
  0
DIMSTYLE
105
264
102
{ACAD_REACTORS
330
265
102
}
330
A
100
AcDbSymbolTableRecord
100
AcDbDimStyleTableRecord
  2
ME10_DIM_12
 70
     0
 41
6.0
 42
1.0
 44
2.0
 73
     0
 74
     0
 78
     8
140
6.0
147
4.0
172
     1
173
     1
174
     1
175
     1
176
     2
177
     2
178
     4
271
     2
340
248
  0
ENDTAB
  0
TABLE
  2
BLOCK_RECORD
  5
1
330
0
100
AcDbSymbolTable
 70
     5
  0
BLOCK_RECORD
  5
1F
330
1
100
AcDbSymbolTableRecord
100
AcDbBlockTableRecord
  2
*Model_Space
340
22
  0
BLOCK_RECORD
  5
1B
330
1
100
AcDbSymbolTableRecord
100
AcDbBlockTableRecord
  2
*Paper_Space
340
1E
  0
BLOCK_RECORD
  5
23
330
1
100
AcDbSymbolTableRecord
100
AcDbBlockTableRecord
  2
*Paper_Space0
340
26
  0
BLOCK_RECORD
  5
4A
330
1
100
AcDbSymbolTableRecord
100
AcDbBlockTableRecord
  2
Ränder_Ilme_Rahmen_A4_quer
340
0
102
{BLKREFS
331
6F
102
}
  0
BLOCK_RECORD
  5
241
330
1
100
AcDbSymbolTableRecord
100
AcDbBlockTableRecord
  2
*D2
340
0
  0
BLOCK_RECORD
  5
24E
330
1
100
AcDbSymbolTableRecord
100
AcDbBlockTableRecord
  2
*D3
340
0
  0
BLOCK_RECORD
  5
25A
330
1
100
AcDbSymbolTableRecord
100
AcDbBlockTableRecord
  2
*D4
340
0
  0
ENDTAB
  0
ENDSEC
  0
SECTION
  2
BLOCKS
  0
BLOCK
  5
20
330
1F
100
AcDbEntity
  8
0
100
AcDbBlockBegin
  2
*Model_Space
 70
     0
 10
0.0
 20
0.0
 30
0.0
  3
*Model_Space
  1

  0
ENDBLK
  5
21
330
1F
100
AcDbEntity
  8
0
100
AcDbBlockEnd
  0
BLOCK
  5
1C
330
1B
100
AcDbEntity
 67
     1
  8
0
100
AcDbBlockBegin
  2
*Paper_Space
 70
     0
 10
0.0
 20
0.0
 30
0.0
  3
*Paper_Space
  1

  0
ENDBLK
  5
1D
330
1B
100
AcDbEntity
 67
     1
  8
0
100
AcDbBlockEnd
  0
BLOCK
  5
24
330
23
100
AcDbEntity
  8
0
100
AcDbBlockBegin
  2
*Paper_Space0
 70
     0
 10
0.0
 20
0.0
 30
0.0
  3
*Paper_Space0
  1

  0
ENDBLK
  5
25
330
23
100
AcDbEntity
  8
0
100
AcDbBlockEnd
  0
BLOCK
  5
4B
330
4A
100
AcDbEntity
  8
0
100
AcDbBlockBegin
  2
Ränder_Ilme_Rahmen_A4_quer
 70
     0
 10
2892.199298947226
 20
718.69250149546
 30
0.0
  3
Ränder_Ilme_Rahmen_A4_quer
  1

  0
LWPOLYLINE
  5
70
330
4A
100
AcDbEntity
  8
Skizziergeometrie_ISO_
  6
Continuous
 62
     7
100
AcDbPolyline
 90
        2
 70
     0
 43
0.5
 10
2912.199298947226
 20
738.69250149546
 10
2912.199298947226
 20
1098.69250149546
  0
LWPOLYLINE
  5
71
330
4A
100
AcDbEntity
  8
Skizziergeometrie_ISO_
  6
Continuous
 62
     7
100
AcDbPolyline
 90
        2
 70
     0
 43
0.5
 10
2912.199298947226
 20
1098.69250149546
 10
3466.199298947226
 20
1098.69250149546
  0
LWPOLYLINE
  5
72
330
4A
100
AcDbEntity
  8
Skizziergeometrie_ISO_
  6
Continuous
 62
     7
100
AcDbPolyline
 90
        2
 70
     0
 43
0.5
 10
2912.199298947226
 20
738.69250149546
 10
3466.199298947226
 20
738.69250149546
  0
LWPOLYLINE
  5
73
330
4A
100
AcDbEntity
  8
Skizziergeometrie_ISO_
  6
Continuous
 62
     7
100
AcDbPolyline
 90
        2
 70
     0
 43
0.5
 10
3189.199298947226
 20
1138.69250149546
 10
3189.199298947226
 20
1110.69250149546
  0
LWPOLYLINE
  5
74
330
4A
100
AcDbEntity
  8
Skizziergeometrie_ISO_
  6
Continuous
 62
     7
100
AcDbPolyline
 90
        2
 70
     0
 43
0.5
 10
3466.199298947226
 20
1098.69250149546
 10
3466.199298947226
 20
738.69250149546
  0
MTEXT
  5
76
330
4A
100
AcDbEntity
  8
Symbole_ISO_
 62
     7
100
AcDbMText
 10
3191.899298947226
 20
1111.52226165553
 30
0.0
 40
7.0
 41
0.0
 71
     2
 72
     1
  1
Diritti riservati     All rights reserved
  7
CONVERTER_11
 73
     1
 44
0.75727272727273
  0
ENDBLK
  5
4C
330
4A
100
AcDbEntity
  8
0
100
AcDbBlockEnd
  0
BLOCK
  5
24A
330
241
100
AcDbEntity
  8
0
100
AcDbBlockBegin
  2
*D2
 70
     1
 10
0.0
 20
0.0
 30
0.0
  3
*D2
  1

  0
LINE
  5
242
330
241
100
AcDbEntity
  8
1
  6
Continuous
 62
     2
100
AcDbLine
 10
3300.743911530793
 20
983.785989520138
 30
0.0
 11
3300.743911530793
 21
1005.385103957024
 31
0.0
  0
LINE
  5
243
330
241
100
AcDbEntity
  8
1
  6
Continuous
 62
     2
100
AcDbLine
 10
3300.743911530793
 20
1022.385103957024
 30
0.0
 11
3300.743911530793
 21
1043.98421839391
 31
0.0
  0
LINE
  5
244
330
241
100
AcDbEntity
  8
1
  6
Continuous
 62
     2
100
AcDbLine
 10
3315.199298947226
 20
983.785989520138
 30
0.0
 11
3298.743911530793
 21
983.785989520138
 31
0.0
  0
LINE
  5
245
330
241
100
AcDbEntity
  8
1
  6
Continuous
 62
     2
100
AcDbLine
 10
3315.199298947226
 20
1043.98421839391
 30
0.0
 11
3298.743911530793
 21
1043.98421839391
 31
0.0
  0
SOLID
  5
246
330
241
100
AcDbEntity
  8
1
 62
     2
100
AcDbTrace
 10
3299.953996545269
 20
989.785989520138
 30
0.0
 11
3301.533826516317
 21
989.785989520138
 31
0.0
 12
3300.743911530793
 22
983.785989520138
 32
0.0
 13
3300.743911530793
 23
983.785989520138
 33
0.0
  0
SOLID
  5
247
330
241
100
AcDbEntity
  8
1
 62
     2
100
AcDbTrace
 10
3301.533826516317
 20
1037.98421839391
 30
0.0
 11
3299.953996545269
 21
1037.98421839391
 31
0.0
 12
3300.743911530793
 22
1043.98421839391
 32
0.0
 13
3300.743911530793
 23
1043.98421839391
 33
0.0
  0
MTEXT
  5
249
330
241
100
AcDbEntity
  8
1
 62
     4
100
AcDbMText
 10
3303.743911530793
 20
1009.385103957024
 30
0.0
 40
6.0
 41
0.0
 71
     7
 72
     1
  1
60
  7
CONVERTER_15
 11
0.0
 21
1.0
 31
0.0
 73
     1
 44
0.60024009603842
  0
ENDBLK
  5
24B
330
241
100
AcDbEntity
  8
0
100
AcDbBlockEnd
  0
BLOCK
  5
256
330
24E
100
AcDbEntity
  8
0
100
AcDbBlockBegin
  2
*D3
 70
     1
 10
0.0
 20
0.0
 30
0.0
  3
*D3
  1

  0
LINE
  5
24F
330
24E
100
AcDbEntity
  8
1
  6
Continuous
 62
     2
100
AcDbLine
 10
3078.585852006927
 20
969.3381435466197
 30
0.0
 11
3152.527166442798
 21
969.3381435466197
 31
0.0
  0
LINE
  5
250
330
24E
100
AcDbEntity
  8
1
  6
Continuous
 62
     2
100
AcDbLine
 10
3173.127166442798
 20
969.3381435466197
 30
0.0
 11
3247.068480878669
 21
969.3381435466197
 31
0.0
  0
LINE
  5
251
330
24E
100
AcDbEntity
  8
1
  6
Continuous
 62
     2
100
AcDbLine
 10
3078.585852006927
 20
990.7859895201358
 30
0.0
 11
3078.585852006927
 21
967.3381435466197
 31
0.0
  0
LINE
  5
252
330
24E
100
AcDbEntity
  8
1
  6
Continuous
 62
     2
100
AcDbLine
 10
3247.068480878669
 20
1028.984218393908
 30
0.0
 11
3247.068480878669
 21
967.3381435466197
 31
0.0
  0
SOLID
  5
253
330
24E
100
AcDbEntity
  8
1
 62
     2
100
AcDbTrace
 10
3084.585852006927
 20
970.128058532144
 30
0.0
 11
3084.585852006927
 21
968.5482285610954
 31
0.0
 12
3078.585852006927
 22
969.3381435466197
 32
0.0
 13
3078.585852006927
 23
969.3381435466197
 33
0.0
  0
SOLID
  5
254
330
24E
100
AcDbEntity
  8
1
 62
     2
100
AcDbTrace
 10
3241.068480878669
 20
968.5482285610954
 30
0.0
 11
3241.068480878669
 21
970.128058532144
 31
0.0
 12
3247.068480878669
 22
969.3381435466197
 32
0.0
 13
3247.068480878669
 23
969.3381435466197
 33
0.0
  0
MTEXT
  5
255
330
24E
100
AcDbEntity
  8
1
 62
     4
100
AcDbMText
 10
3156.527166442798
 20
966.3381435466197
 30
0.0
 40
6.0
 41
0.0
 71
     7
 72
     1
  1
168
  7
CONVERTER_15
 11
0.9999999999970619
 21
2.424068405545306E-6
 31
0.0
 73
     1
 44
0.60024009603842
  0
ENDBLK
  5
257
330
24E
100
AcDbEntity
  8
0
100
AcDbBlockEnd
  0
BLOCK
  5
262
330
25A
100
AcDbEntity
  8
0
100
AcDbBlockBegin
  2
*D4
 70
     1
 10
0.0
 20
0.0
 30
0.0
  3
*D4
  1

  0
LINE
  5
25B
330
25A
100
AcDbEntity
  8
1
  6
Continuous
 62
     2
100
AcDbLine
 10
3262.086480878669
 20
858.9450183928494
 30
0.0
 11
3262.086480878669
 21
867.445018411757
 31
0.0
  0
LINE
  5
25C
330
25A
100
AcDbEntity
  8
1
  6
Continuous
 62
     2
100
AcDbLine
 10
3262.086480878669
 20
884.445018411757
 30
0.0
 11
3262.086480878669
 21
892.9450184306645
 31
0.0
  0
LINE
  5
25D
330
25A
100
AcDbEntity
  8
1
  6
Continuous
 62
     2
100
AcDbLine
 10
3218.520400422328
 20
858.9450183928494
 30
0.0
 11
3264.086480878669
 21
858.9450183928494
 31
0.0
  0
LINE
  5
25E
330
25A
100
AcDbEntity
  8
1
  6
Continuous
 62
     2
100
AcDbLine
 10
3240.08648087867
 20
892.9450184306645
 30
0.0
 11
3264.086480878669
 21
892.9450184306645
 31
0.0
  0
SOLID
  5
25F
330
25A
100
AcDbEntity
  8
1
 62
     2
100
AcDbTrace
 10
3261.296565893145
 20
864.9450183928494
 30
0.0
 11
3262.876395864193
 21
864.9450183928494
 31
0.0
 12
3262.086480878669
 22
858.9450183928494
 32
0.0
 13
3262.086480878669
 23
858.9450183928494
 33
0.0
  0
SOLID
  5
260
330
25A
100
AcDbEntity
  8
1
 62
     2
100
AcDbTrace
 10
3262.876395864193
 20
886.9450184306645
 30
0.0
 11
3261.296565893145
 21
886.9450184306645
 31
0.0
 12
3262.086480878669
 22
892.9450184306645
 32
0.0
 13
3262.086480878669
 23
892.9450184306645
 33
0.0
  0
MTEXT
  5
261
330
25A
100
AcDbEntity
  8
1
 62
     4
100
AcDbMText
 10
3265.086480878669
 20
871.445018411757
 30
0.0
 40
6.0
 41
0.0
 71
     7
 72
     1
  1
34
  7
CONVERTER_15
 11
0.0
 21
1.0
 31
0.0
 73
     1
 44
0.60024009603842
  0
ENDBLK
  5
263
330
25A
100
AcDbEntity
  8
0
100
AcDbBlockEnd
  0
ENDSEC
  0
SECTION
  2
ENTITIES
  0
INSERT
  5
6F
330
1F
100
AcDbEntity
  8
0
100
AcDbBlockReference
  2
Ränder_Ilme_Rahmen_A4_quer
 10
2892.199298947226
 20
718.69250149546
 30
0.0
  0
LINE
  5
77
330
1F
100
AcDbEntity
  8
0
  6
Continuous
 62
     7
100
AcDbLine
 10
3140.405760581685
 20
983.7859895201358
 30
0.0
 11
3140.516124663566
 21
983.7859895201358
 31
0.0
  0
LINE
  5
78
330
1F
100
AcDbEntity
  8
0
  6
Continuous
 62
     7
100
AcDbLine
 10
3138.911468534547
 20
983.7859895201358
 30
0.0
 11
3140.405760581685
 21
983.7859895201358
 31
0.0
  0
LINE
  5
79
330
1F
100
AcDbEntity
  8
0
  6
Continuous
 62
     7
100
AcDbLine
 10
3140.516124663566
 20
983.7859895201358
 30
0.0
 11
3142.010416710703
 21
983.7859895201358
 31
0.0
  0
LINE
  5
7A
330
1F
100
AcDbEntity
  8
0
  6
Continuous
 62
     7
100
AcDbLine
 10
3149.256546396319
 20
983.7859895201358
 30
0.0
 11
3150.750838443456
 21
983.7859895201358
 31
0.0
  0
LINE
  5
7B
330
1F
100
AcDbEntity
  8
0
  6
Continuous
 62
     7
100
AcDbLine
 10
3142.010416710703
 20
983.7859895201358
 30
0.0
 11
3149.256546396319
 21
983.7859895201358
 31
0.0
  0
LINE
  5
7C
330
1F
100
AcDbEntity
  8
0
  6
Continuous
 62
     7
100
AcDbLine
 10
3150.750838443456
 20
983.7859895201358
 30
0.0
 11
3150.861202525337
 21
983.7859895201358
 31
0.0
  0
LINE
  5
7D
330
1F
100
AcDbEntity
  8
0
  6
Continuous
 62
     7
100
AcDbLine
 10
3150.861202525337
 20
983.7859895201358
 30
0.0
 11
3152.355494572475
 21
983.7859895201358
 31
0.0
  0
LINE
  5
7E
330
1F
100
AcDbEntity
  8
0
  6
Continuous
 62
     2
100
AcDbLine
 10
3149.256546396319
 20
984.7859895201358
 30
0.0
 11
3151.049696852884
 21
984.7859895201358
 31
0.0
  0
LINE
  5
7F
330
1F
100
AcDbEntity
  8
0
  6
Continuous
 62
     2
100
AcDbLine
 10
3140.106902172257
 20
984.7859895201358
 30
0.0
 11
3140.217266254138
 21
984.7859895201358
 31
0.0
  0
LINE
  5
80
330
1F
100
AcDbEntity
  8
0
  6
Continuous
 62
     2
100
AcDbLine
 10
3138.911468534547
 20
984.7859895201358
 30
0.0
 11
3140.106902172257
 21
984.7859895201358
 31
0.0
  0
LINE
  5
81
330
1F
100
AcDbEntity
  8
0
  6
Continuous
 62
     2
100
AcDbLine
 10
3140.217266254138
 20
984.7859895201358
 30
0.0
 11
3142.010416710703
 21
984.7859895201358
 31
0.0
  0
LINE
  5
82
330
1F
100
AcDbEntity
  8
0
  6
Continuous
 62
     2
100
AcDbLine
 10
3142.010416710703
 20
984.7859895201358
 30
0.0
 11
3149.256546396319
 21
984.7859895201358
 31
0.0
  0
LINE
  5
83
330
1F
100
AcDbEntity
  8
0
  6
Continuous
 62
     2
100
AcDbLine
 10
3151.160060934765
 20
984.7859895201358
 30
0.0
 11
3152.355494572475
 21
984.7859895201358
 31
0.0
  0
LINE
  5
84
330
1F
100
AcDbEntity
  8
0
  6
Continuous
 62
     2
100
AcDbLine
 10
3151.049696852884
 20
984.7859895201358
 30
0.0
 11
3151.160060934765
 21
984.7859895201358
 31
0.0
  0
LINE
  5
85
330
1F
100
AcDbEntity
  8
0
  6
Continuous
 62
     7
100
AcDbLine
 10
3078.603852006928
 20
892.9450184306645
 30
0.0
 11
3078.603852006928
 21
887.9450184306646
 31
0.0
  0
LINE
  5
86
330
1F
100
AcDbEntity
  8
0
  6
Continuous
 62
     7
100
AcDbLine
 10
3086.603852006928
 20
892.9450184306645
 30
0.0
 11
3078.603852006928
 21
892.9450184306645
 31
0.0
  0
LINE
  5
87
330
1F
100
AcDbEntity
  8
0
  6
Continuous
 62
     2
100
AcDbLine
 10
3086.603852006928
 20
887.9450184306646
 30
0.0
 11
3078.603852006928
 21
887.9450184306646
 31
0.0
  0
LINE
  5
88
330
1F
100
AcDbEntity
  8
0
  6
Continuous
 62
     7
100
AcDbLine
 10
3218.036480879191
 20
886.9450184306646
 30
0.0
 11
3107.753852006928
 21
886.9450184306646
 31
0.0
  0
LINE
  5
89
330
1F
100
AcDbEntity
  8
0
  6
Continuous
 62
     7
100
AcDbLine
 10
3086.603852006928
 20
886.9450184306646
 30
0.0
 11
3079.603852006928
 21
886.9450184306646
 31
0.0
  0
LINE
  5
8A
330
1F
100
AcDbEntity
  8
0
  6
Continuous
 62
     2
100
AcDbLine
 10
3086.603852006928
 20
892.9450184306645
 30
0.0
 11
3086.603852006928
 21
887.9450184306646
 31
0.0
  0
LINE
  5
8B
330
1F
100
AcDbEntity
  8
0
  6
Continuous
 62
     2
100
AcDbLine
 10
3090.753852006928
 20
892.9450184306645
 30
0.0
 11
3090.753852006928
 21
887.9450184306646
 31
0.0
  0
LINE
  5
8C
330
1F
100
AcDbEntity
  8
0
  6
Continuous
 62
     2
100
AcDbLine
 10
3086.603852006928
 20
887.9450184306646
 30
0.0
 11
3090.753852006928
 21
887.9450184306646
 31
0.0
  0
LINE
  5
8D
330
1F
100
AcDbEntity
  8
0
  6
Continuous
 62
     7
100
AcDbLine
 10
3096.753852006928
 20
892.9450184306645
 30
0.0
 11
3096.753852006928
 21
887.9450184306646
 31
0.0
  0
LINE
  5
8E
330
1F
100
AcDbEntity
  8
0
  6
Continuous
 62
     2
100
AcDbLine
 10
3239.086480878669
 20
887.9450184306646
 30
0.0
 11
3107.753852006928
 21
887.9450184306646
 31
0.0
  0
LINE
  5
8F
330
1F
100
AcDbEntity
  8
0
  6
Continuous
 62
     2
100
AcDbLine
 10
3107.753852006928
 20
887.9450184306646
 30
0.0
 11
3096.753852006928
 21
887.9450184306646
 31
0.0
  0
LINE
  5
90
330
1F
100
AcDbEntity
  8
0
  6
Continuous
 62
     2
100
AcDbLine
 10
3107.753852006928
 20
892.9450184306645
 30
0.0
 11
3107.753852006928
 21
887.9450184306646
 31
0.0
  0
LINE
  5
91
330
1F
100
AcDbEntity
  8
0
  6
Continuous
 62
     7
100
AcDbLine
 10
3166.466146173572
 20
888.9450184306645
 30
0.0
 11
3159.220016487956
 21
888.9450184306646
 31
0.0
  0
LINE
  5
92
330
1F
100
AcDbEntity
  8
0
  6
Continuous
 62
     7
100
AcDbLine
 10
3107.753852006928
 20
892.9450184306645
 30
0.0
 11
3156.1210683118
 21
892.9450184306645
 31
0.0
  0
LINE
  5
93
330
1F
100
AcDbEntity
  8
0
  6
Continuous
 62
     7
100
AcDbLine
 10
3086.603852006928
 20
892.9450184306645
 30
0.0
 11
3090.753852006928
 21
892.9450184306645
 31
0.0
  0
LINE
  5
94
330
1F
100
AcDbEntity
  8
0
  6
Continuous
 62
     7
100
AcDbLine
 10
3090.753852006928
 20
892.9450184306645
 30
0.0
 11
3096.753852006928
 21
892.9450184306645
 31
0.0
  0
LINE
  5
95
330
1F
100
AcDbEntity
  8
0
  6
Continuous
 62
     7
100
AcDbLine
 10
3096.753852006928
 20
892.9450184306645
 30
0.0
 11
3107.753852006928
 21
892.9450184306645
 31
0.0
  0
LINE
  5
96
330
1F
100
AcDbEntity
  8
0
  6
Continuous
 62
     7
100
AcDbLine
 10
3157.615360358938
 20
891.575752044786
 30
0.0
 11
3157.725724440818
 21
890.314284816543
 31
0.0
  0
LINE
  5
97
330
1F
100
AcDbEntity
  8
0
  6
Continuous
 62
     7
100
AcDbLine
 10
3167.960438220709
 20
890.3142848165431
 30
0.0
 11
3168.07080230259
 21
891.575752044786
 31
0.0
  0
LINE
  5
98
330
1F
100
AcDbEntity
  8
0
  6
Continuous
 62
     2
100
AcDbLine
 10
3239.086480878669
 20
892.9450184306645
 30
0.0
 11
3239.086480878669
 21
887.9450184306646
 31
0.0
  0
LINE
  5
99
330
1F
100
AcDbEntity
  8
0
  6
Continuous
 62
     7
100
AcDbLine
 10
3169.565094349728
 20
892.9450184306645
 30
0.0
 11
3239.086480878669
 21
892.9450184306645
 31
0.0
  0
LINE
  5
9A
330
1F
100
AcDbEntity
  8
0
  6
Continuous
 62
     7
100
AcDbLine
 10
3247.086480878669
 20
892.9450184306645
 30
0.0
 11
3239.086480878669
 21
892.9450184306645
 31
0.0
  0
LINE
  5
9B
330
1F
100
AcDbEntity
  8
0
  6
Continuous
 62
     7
100
AcDbLine
 10
3247.086480878669
 20
892.9450184306645
 30
0.0
 11
3247.086480878669
 21
887.9450184306646
 31
0.0
  0
LINE
  5
9C
330
1F
100
AcDbEntity
  8
0
  6
Continuous
 62
     2
100
AcDbLine
 10
3247.086480878669
 20
887.9450184306646
 30
0.0
 11
3239.086480878669
 21
887.9450184306646
 31
0.0
  0
LINE
  5
9D
330
1F
100
AcDbEntity
  8
0
  6
Continuous
 62
     7
100
AcDbLine
 10
3246.086480878669
 20
886.9450184306645
 30
0.0
 11
3239.086480878668
 21
886.9450184306645
 31
0.0
  0
LINE
  5
9E
330
1F
100
AcDbEntity
  8
0
  6
Continuous
 62
     7
100
AcDbLine
 10
3221.063503517149
 20
877.4450184306647
 30
0.0
 11
3218.036480879191
 21
877.4450184306647
 31
0.0
  0
LINE
  5
9F
330
1F
100
AcDbEntity
  8
0
  6
Continuous
 62
     7
100
AcDbLine
 10
3225.636480879191
 20
877.4450184306647
 30
0.0
 11
3221.063503517149
 21
877.4450184306647
 31
0.0
  0
LINE
  5
A0
330
1F
100
AcDbEntity
  8
0
  6
Continuous
 62
     2
100
AcDbLine
 10
3226.636480879191
 20
878.4450184306647
 30
0.0
 11
3218.036480879191
 21
878.4450184306647
 31
0.0
  0
LINE
  5
A1
330
1F
100
AcDbEntity
  8
0
  6
Continuous
 62
     7
100
AcDbLine
 10
3226.636480879191
 20
886.9450184306646
 30
0.0
 11
3218.036480879191
 21
886.9450184306646
 31
0.0
  0
LINE
  5
A2
330
1F
100
AcDbEntity
  8
0
  6
Continuous
 62
     2
100
AcDbLine
 10
3239.086480878668
 20
886.9450184306645
 30
0.0
 11
3239.086480878669
 21
887.9450184306646
 31
0.0
  0
LINE
  5
A3
330
1F
100
AcDbEntity
  8
0
  6
Continuous
 62
     7
100
AcDbLine
 10
3239.086480878668
 20
886.9450184306645
 30
0.0
 11
3226.636480879191
 21
886.9450184306646
 31
0.0
  0
LINE
  5
A4
330
1F
100
AcDbEntity
  8
0
  6
Continuous
 62
     2
100
AcDbLine
 10
3218.036480879191
 20
886.9450184306646
 30
0.0
 11
3218.036480879191
 21
878.4450184306647
 31
0.0
  0
LINE
  5
A5
330
1F
100
AcDbEntity
  8
0
  6
Continuous
 62
     7
100
AcDbLine
 10
3226.636480879191
 20
886.9450184306646
 30
0.0
 11
3226.636480879191
 21
878.4450184306647
 31
0.0
  0
LINE
  5
A6
330
1F
100
AcDbEntity
  8
0
  6
Continuous
 62
     7
100
AcDbLine
 10
3108.168167166358
 20
858.9450211719193
 30
0.0
 11
3217.520400422327
 21
858.9450183928494
 31
0.0
  0
LINE
  5
A7
330
1F
100
AcDbEntity
  8
0
  6
Continuous
 62
     7
100
AcDbLine
 10
3220.518575536981
 20
861.840322769642
 30
0.0
 11
3220.551113790989
 21
862.7720964527871
 31
0.0
  0
LINE
  5
A8
330
1F
100
AcDbEntity
  8
0
  6
Continuous
 62
     7
100
AcDbLine
 10
3220.551113790989
 20
862.7720964527871
 30
0.0
 11
3221.063503517149
 21
877.4450184306647
 31
0.0
  0
LINE
  5
A9
330
1F
100
AcDbEntity
  8
0
  6
Continuous
 62
     2
100
AcDbLine
 10
3218.036480879191
 20
877.4450184306647
 30
0.0
 11
3218.036480879191
 21
878.4450184306647
 31
0.0
  0
LINE
  5
AA
330
1F
100
AcDbEntity
  8
0
  6
Continuous
 62
     2
100
AcDbLine
 10
3107.652080879187
 20
878.4450184306647
 30
0.0
 11
3218.036480879191
 21
878.4450184306647
 31
0.0
  0
LINE
  5
AB
330
1F
100
AcDbEntity
  8
0
  6
Continuous
 62
     2
100
AcDbLine
 10
3107.652080879187
 20
878.4450184306647
 30
0.0
 11
3099.052080879186
 21
878.4450184306647
 31
0.0
  0
LINE
  5
AC
330
1F
100
AcDbEntity
  8
0
  6
Continuous
 62
     7
100
AcDbLine
 10
3111.121098616853
 20
877.4450184306647
 30
0.0
 11
3214.567463141525
 21
877.4450184306647
 31
0.0
  0
LINE
  5
AD
330
1F
100
AcDbEntity
  8
0
  6
Continuous
 62
     7
100
AcDbLine
 10
3214.567463141525
 20
877.4450184306647
 30
0.0
 11
3218.036480879191
 21
877.4450184306647
 31
0.0
  0
LINE
  5
AE
330
1F
100
AcDbEntity
  8
0
  6
Continuous
 62
     2
100
AcDbLine
 10
3214.076975942162
 20
863.3993027576745
 30
0.0
 11
3214.567463141525
 21
877.4450184306647
 31
0.0
  0
LINE
  5
AF
330
1F
100
AcDbEntity
  8
0
  6
Continuous
 62
     2
100
AcDbLine
 10
3090.753852006928
 20
887.9450184306646
 30
0.0
 11
3096.753852006928
 21
887.9450184306646
 31
0.0
  0
LINE
  5
B0
330
1F
100
AcDbEntity
  8
0
  6
Continuous
 62
     2
100
AcDbLine
 10
3090.753852006928
 20
887.9450184306646
 30
0.0
 11
3090.753852006928
 21
886.9450184306646
 31
0.0
  0
LINE
  5
B1
330
1F
100
AcDbEntity
  8
0
  6
Continuous
 62
     7
100
AcDbLine
 10
3086.603852006928
 20
886.9450184306646
 30
0.0
 11
3090.753852006928
 21
886.9450184306646
 31
0.0
  0
LINE
  5
B2
330
1F
100
AcDbEntity
  8
0
  6
Continuous
 62
     2
100
AcDbLine
 10
3086.603852006928
 20
886.9450184306646
 30
0.0
 11
3086.603852006928
 21
887.9450184306646
 31
0.0
  0
LINE
  5
B3
330
1F
100
AcDbEntity
  8
0
  6
Continuous
 62
     2
100
AcDbLine
 10
3107.753852006928
 20
886.9450184306646
 30
0.0
 11
3107.753852006928
 21
887.9450184306646
 31
0.0
  0
LINE
  5
B4
330
1F
100
AcDbEntity
  8
0
  6
Continuous
 62
     7
100
AcDbLine
 10
3099.052080879186
 20
886.9450184306646
 30
0.0
 11
3097.753852006928
 21
886.9450184306646
 31
0.0
  0
LINE
  5
B5
330
1F
100
AcDbEntity
  8
0
  6
Continuous
 62
     7
100
AcDbLine
 10
3099.052080879186
 20
886.9450184306646
 30
0.0
 11
3099.052080879186
 21
878.4450184306647
 31
0.0
  0
LINE
  5
B6
330
1F
100
AcDbEntity
  8
0
  6
Continuous
 62
     7
100
AcDbLine
 10
3104.625058241229
 20
877.4450184306647
 30
0.0
 11
3100.052080879186
 21
877.4450184306647
 31
0.0
  0
LINE
  5
B7
330
1F
100
AcDbEntity
  8
0
  6
Continuous
 62
     7
100
AcDbLine
 10
3107.753852006928
 20
886.9450184306646
 30
0.0
 11
3107.652080879187
 21
886.9450184306646
 31
0.0
  0
LINE
  5
B8
330
1F
100
AcDbEntity
  8
0
  6
Continuous
 62
     7
100
AcDbLine
 10
3107.652080879187
 20
877.4450184306647
 30
0.0
 11
3104.625058241229
 21
877.4450184306647
 31
0.0
  0
LINE
  5
B9
330
1F
100
AcDbEntity
  8
0
  6
Continuous
 62
     7
100
AcDbLine
 10
3105.13744790064
 20
862.772098364194
 30
0.0
 11
3105.169986064471
 21
861.8403272633797
 31
0.0
  0
LINE
  5
BA
330
1F
100
AcDbEntity
  8
0
  6
Continuous
 62
     2
100
AcDbLine
 10
3107.652080879187
 20
886.9450184306646
 30
0.0
 11
3107.652080879187
 21
878.4450184306647
 31
0.0
  0
LINE
  5
BB
330
1F
100
AcDbEntity
  8
0
  6
Continuous
 62
     2
100
AcDbLine
 10
3107.652080879187
 20
877.4450184306647
 30
0.0
 11
3107.652080879187
 21
878.4450184306647
 31
0.0
  0
LINE
  5
BC
330
1F
100
AcDbEntity
  8
0
  6
Continuous
 62
     7
100
AcDbLine
 10
3107.652080879187
 20
877.4450184306647
 30
0.0
 11
3111.121098616853
 21
877.4450184306647
 31
0.0
  0
LINE
  5
BD
330
1F
100
AcDbEntity
  8
0
  6
Continuous
 62
     2
100
AcDbLine
 10
3111.6115860231
 20
863.3992968332789
 30
0.0
 11
3111.121098616853
 21
877.4450184306647
 31
0.0
  0
LINE
  5
BE
330
1F
100
AcDbEntity
  8
0
  6
Continuous
 62
     7
100
AcDbLine
 10
3105.13744790064
 20
862.772098364194
 30
0.0
 11
3104.625058241229
 21
877.4450184306647
 31
0.0
  0
LINE
  5
BF
330
1F
100
AcDbEntity
  8
0
  6
Continuous
 62
     7
100
AcDbLine
 10
3107.652080879187
 20
886.9450184306646
 30
0.0
 11
3099.052080879186
 21
886.9450184306646
 31
0.0
  0
LINE
  5
C0
330
1F
100
AcDbEntity
  8
0
  6
Continuous
 62
     7
100
AcDbLine
 10
3090.753852006928
 20
886.9450184306646
 30
0.0
 11
3097.753852006928
 21
886.9450184306646
 31
0.0
  0
LINE
  5
C1
330
1F
100
AcDbEntity
  8
0
  6
Continuous
 62
     7
100
AcDbLine
 10
3239.068480878669
 20
1043.984218393908
 30
0.0
 11
3107.735852006928
 21
1043.984218393908
 31
0.0
  0
LINE
  5
C2
330
1F
100
AcDbEntity
  8
0
  6
Continuous
 62
     2
100
AcDbLine
 10
3239.068480878669
 20
1042.984218393908
 30
0.0
 11
3239.068480878669
 21
1043.984218393908
 31
0.0
  0
LINE
  5
C3
330
1F
100
AcDbEntity
  8
0
  6
Continuous
 62
     2
100
AcDbLine
 10
3107.735852006928
 20
1042.984218393908
 30
0.0
 11
3107.735852006928
 21
1043.984218393908
 31
0.0
  0
LINE
  5
C4
330
1F
100
AcDbEntity
  8
0
  6
Continuous
 62
     2
100
AcDbLine
 10
3239.068480878669
 20
1042.984218393908
 30
0.0
 11
3152.355494572475
 21
1042.984218393908
 31
0.0
  0
LINE
  5
C5
330
1F
100
AcDbEntity
  8
0
  6
Continuous
 62
     2
100
AcDbLine
 10
3152.355494572475
 20
1042.984218393908
 30
0.0
 11
3107.735852006928
 21
1042.984218393908
 31
0.0
  0
LINE
  5
C6
330
1F
100
AcDbEntity
  8
0
  6
Continuous
 62
     2
100
AcDbLine
 10
3100.034080879186
 20
1032.785989520138
 30
0.0
 11
3099.034080879186
 21
1032.785989520138
 31
0.0
  0
LINE
  5
C7
330
1F
100
AcDbEntity
  8
0
  6
Continuous
 62
     2
100
AcDbLine
 10
3107.634080879187
 20
1040.385989520138
 30
0.0
 11
3107.634080879187
 21
1041.385989520138
 31
0.0
  0
LINE
  5
C8
330
1F
100
AcDbEntity
  8
0
  6
Continuous
 62
     7
100
AcDbLine
 10
3214.549463141525
 20
1036.413012158094
 30
0.0
 11
3111.103098616853
 21
1036.413012158094
 31
0.0
  0
LINE
  5
C9
330
1F
100
AcDbEntity
  8
0
  6
Continuous
 62
     2
100
AcDbLine
 10
3214.058975942161
 20
1035.922524958731
 30
0.0
 11
3214.549463141525
 21
1036.413012158094
 31
0.0
  0
LINE
  5
CA
330
1F
100
AcDbEntity
  8
0
  6
Continuous
 62
     2
100
AcDbLine
 10
3111.5935860231
 20
1035.922524751847
 30
0.0
 11
3111.103098616853
 21
1036.413012158094
 31
0.0
  0
LINE
  5
CB
330
1F
100
AcDbEntity
  8
0
  6
Continuous
 62
     2
100
AcDbLine
 10
3246.068480878669
 20
1035.984218393908
 30
0.0
 11
3247.068480878669
 21
1035.984218393908
 31
0.0
  0
LINE
  5
CC
330
1F
100
AcDbEntity
  8
0
  6
Continuous
 62
     7
100
AcDbLine
 10
3107.634080879187
 20
1041.385989520138
 30
0.0
 11
3218.018480879191
 21
1041.385989520138
 31
0.0
  0
LINE
  5
CD
330
1F
100
AcDbEntity
  8
0
  6
Continuous
 62
     2
100
AcDbLine
 10
3107.634080879187
 20
1040.385989520138
 30
0.0
 11
3218.018480879191
 21
1040.385989520138
 31
0.0
  0
LINE
  5
CE
330
1F
100
AcDbEntity
  8
0
  6
Continuous
 62
     2
100
AcDbLine
 10
3218.018480879191
 20
1040.385989520138
 30
0.0
 11
3218.018480879191
 21
1041.385989520138
 31
0.0
  0
LINE
  5
CF
330
1F
100
AcDbEntity
  8
0
  6
Continuous
 62
     7
100
AcDbLine
 10
3234.918480879191
 20
1021.984218393908
 30
0.0
 11
3239.068480878669
 21
1021.984218393908
 31
0.0
  0
LINE
  5
D0
330
1F
100
AcDbEntity
  8
0
  6
Continuous
 62
     7
100
AcDbLine
 10
3247.068480878669
 20
1035.984218393908
 30
0.0
 11
3247.068480878669
 21
1029.984218393908
 31
0.0
  0
LINE
  5
D1
330
1F
100
AcDbEntity
  8
0
  6
Continuous
 62
     2
100
AcDbLine
 10
3234.918480879191
 20
1022.984218393908
 30
0.0
 11
3239.068480878669
 21
1022.984218393908
 31
0.0
  0
LINE
  5
D2
330
1F
100
AcDbEntity
  8
0
  6
Continuous
 62
     2
100
AcDbLine
 10
3239.068480878669
 20
1022.984218393908
 30
0.0
 11
3239.068480878669
 21
1021.984218393908
 31
0.0
  0
LINE
  5
D3
330
1F
100
AcDbEntity
  8
0
  6
Continuous
 62
     2
100
AcDbLine
 10
3096.735852006928
 20
1011.785989520136
 30
0.0
 11
3097.735852006928
 21
1011.785989520136
 31
0.0
  0
LINE
  5
D4
330
1F
100
AcDbEntity
  8
0
  6
Continuous
 62
     7
100
AcDbLine
 10
3096.735852006928
 20
1011.785989520136
 30
0.0
 11
3096.735852006928
 21
1032.984218393908
 31
0.0
  0
LINE
  5
D5
330
1F
100
AcDbEntity
  8
0
  6
Continuous
 62
     2
100
AcDbLine
 10
3097.735852006928
 20
1011.785989520136
 30
0.0
 11
3097.735852006928
 21
1032.984218393908
 31
0.0
  0
LINE
  5
D6
330
1F
100
AcDbEntity
  8
0
  6
Continuous
 62
     2
100
AcDbLine
 10
3228.918480879191
 20
1015.984218393908
 30
0.0
 11
3227.918480879191
 21
1015.984218393908
 31
0.0
  0
LINE
  5
D7
330
1F
100
AcDbEntity
  8
0
  6
Continuous
 62
     2
100
AcDbLine
 10
3079.585852006927
 20
991.7859895201358
 30
0.0
 11
3078.585852006927
 21
991.7859895201358
 31
0.0
  0
LINE
  5
D8
330
1F
100
AcDbEntity
  8
0
  6
Continuous
 62
     7
100
AcDbLine
 10
3078.585852006927
 20
991.7859895201358
 30
0.0
 11
3078.585852006927
 21
997.7859895201358
 31
0.0
  0
LINE
  5
D9
330
1F
100
AcDbEntity
  8
0
  6
Continuous
 62
     2
100
AcDbLine
 10
3079.585852006927
 20
997.7859895201358
 30
0.0
 11
3078.585852006927
 21
997.7859895201358
 31
0.0
  0
LINE
  5
DA
330
1F
100
AcDbEntity
  8
0
  6
Continuous
 62
     2
100
AcDbLine
 10
3090.735852006928
 20
1005.785989520136
 30
0.0
 11
3090.735852006928
 21
1004.785989520136
 31
0.0
  0
LINE
  5
DB
330
1F
100
AcDbEntity
  8
0
  6
Continuous
 62
     7
100
AcDbLine
 10
3086.585852006927
 20
1005.785989520136
 30
0.0
 11
3090.735852006928
 21
1005.785989520136
 31
0.0
  0
LINE
  5
DC
330
1F
100
AcDbEntity
  8
0
  6
Continuous
 62
     2
100
AcDbLine
 10
3086.585852006927
 20
1004.785989520136
 30
0.0
 11
3086.585852006927
 21
1005.785989520136
 31
0.0
  0
LINE
  5
DD
330
1F
100
AcDbEntity
  8
0
  6
Continuous
 62
     2
100
AcDbLine
 10
3079.585852006927
 20
991.7859895201358
 30
0.0
 11
3079.585852006927
 21
997.7859895201358
 31
0.0
  0
LINE
  5
DE
330
1F
100
AcDbEntity
  8
0
  6
Continuous
 62
     2
100
AcDbLine
 10
3086.585852006927
 20
1004.785989520136
 30
0.0
 11
3090.735852006928
 21
1004.785989520136
 31
0.0
  0
LINE
  5
DF
330
1F
100
AcDbEntity
  8
0
  6
Continuous
 62
     2
100
AcDbLine
 10
3100.034080879186
 20
994.9859895203697
 30
0.0
 11
3099.034080879186
 21
994.9859895203697
 31
0.0
  0
LINE
  5
E0
330
1F
100
AcDbEntity
  8
0
  6
Continuous
 62
     7
100
AcDbLine
 10
3152.355494572475
 20
983.7859895201358
 30
0.0
 11
3217.918480879192
 21
983.7859895201358
 31
0.0
  0
LINE
  5
E1
330
1F
100
AcDbEntity
  8
0
  6
Continuous
 62
     7
100
AcDbLine
 10
3086.585852006927
 20
983.7859895201358
 30
0.0
 11
3138.911468534547
 21
983.7859895201358
 31
0.0
  0
LINE
  5
E2
330
1F
100
AcDbEntity
  8
0
  6
Continuous
 62
     2
100
AcDbLine
 10
3086.585852006927
 20
984.7859895201358
 30
0.0
 11
3086.585852006927
 21
983.7859895201358
 31
0.0
  0
LINE
  5
E3
330
1F
100
AcDbEntity
  8
0
  6
Continuous
 62
     2
100
AcDbLine
 10
3086.585852006927
 20
984.7859895201358
 30
0.0
 11
3138.911468534547
 21
984.7859895201358
 31
0.0
  0
LINE
  5
E4
330
1F
100
AcDbEntity
  8
0
  6
Continuous
 62
     2
100
AcDbLine
 10
3152.355494572475
 20
984.7859895201358
 30
0.0
 11
3217.918480879192
 21
984.7859895201358
 31
0.0
  0
LINE
  5
E5
330
1F
100
AcDbEntity
  8
0
  6
Continuous
 62
     7
100
AcDbLine
 10
3107.634080879187
 20
986.3859895203694
 30
0.0
 11
3218.01848087919
 21
986.3859895203694
 31
0.0
  0
LINE
  5
E6
330
1F
100
AcDbEntity
  8
0
  6
Continuous
 62
     2
100
AcDbLine
 10
3218.01848087919
 20
987.3859895203694
 30
0.0
 11
3218.01848087919
 21
986.3859895203694
 31
0.0
  0
LINE
  5
E7
330
1F
100
AcDbEntity
  8
0
  6
Continuous
 62
     2
100
AcDbLine
 10
3107.634080879187
 20
987.3859895203694
 30
0.0
 11
3107.634080879187
 21
986.3859895203694
 31
0.0
  0
LINE
  5
E8
330
1F
100
AcDbEntity
  8
0
  6
Continuous
 62
     2
100
AcDbLine
 10
3111.103098616853
 20
991.3590278366083
 30
0.0
 11
3111.593586583042
 21
991.8495158027979
 31
0.0
  0
LINE
  5
E9
330
1F
100
AcDbEntity
  8
0
  6
Continuous
 62
     2
100
AcDbLine
 10
3214.549463141525
 20
991.3590278366083
 30
0.0
 11
3214.058975224864
 21
991.849515753269
 31
0.0
  0
LINE
  5
EA
330
1F
100
AcDbEntity
  8
0
  6
Continuous
 62
     7
100
AcDbLine
 10
3111.103098616853
 20
991.3590278366083
 30
0.0
 11
3214.549463141525
 21
991.3590278366083
 31
0.0
  0
LINE
  5
EB
330
1F
100
AcDbEntity
  8
0
  6
Continuous
 62
     2
100
AcDbLine
 10
3227.918480879191
 20
994.7859895201358
 30
0.0
 11
3228.918480879191
 21
994.7859895201358
 31
0.0
  0
LINE
  5
EC
330
1F
100
AcDbEntity
  8
0
  6
Continuous
 62
     2
100
AcDbLine
 10
3107.634080879187
 20
987.3859895203694
 30
0.0
 11
3218.01848087919
 21
987.3859895203694
 31
0.0
  0
LINE
  5
ED
330
1F
100
AcDbEntity
  8
0
  6
Continuous
 62
     2
100
AcDbLine
 10
3097.735852006928
 20
1032.984218393908
 30
0.0
 11
3096.735852006928
 21
1032.984218393908
 31
0.0
  0
LINE
  5
EE
330
1F
100
AcDbEntity
  8
0
  6
Continuous
 62
     2
100
AcDbLine
 10
3246.068480878669
 20
1035.984218393908
 30
0.0
 11
3246.068480878669
 21
1029.984218393908
 31
0.0
  0
LINE
  5
EF
330
1F
100
AcDbEntity
  8
0
  6
Continuous
 62
     2
100
AcDbLine
 10
3105.11944790064
 20
1029.404582123058
 30
0.0
 11
3104.607058241228
 21
1029.91697178247
 31
0.0
  0
LINE
  5
F0
330
1F
100
AcDbEntity
  8
0
  6
Continuous
 62
     2
100
AcDbLine
 10
3225.618480879191
 20
1032.785989520138
 30
0.0
 11
3226.618480879191
 21
1032.785989520138
 31
0.0
  0
LINE
  5
F1
330
1F
100
AcDbEntity
  8
0
  6
Continuous
 62
     2
100
AcDbLine
 10
3246.068480878669
 20
1029.984218393908
 30
0.0
 11
3247.068480878669
 21
1029.984218393908
 31
0.0
  0
LINE
  5
F2
330
1F
100
AcDbEntity
  8
0
  6
Continuous
 62
     2
100
AcDbLine
 10
3220.533113790989
 20
1029.40458205631
 30
0.0
 11
3221.045503517149
 21
1029.91697178247
 31
0.0
  0
LINE
  5
F3
330
1F
100
AcDbEntity
  8
0
  6
Continuous
 62
     2
100
AcDbLine
 10
3225.618480879191
 20
994.98598952037
 30
0.0
 11
3225.618480879191
 21
1032.785989520138
 31
0.0
  0
LINE
  5
F4
330
1F
100
AcDbEntity
  8
0
  6
Continuous
 62
     7
100
AcDbLine
 10
3226.618480879191
 20
994.98598952037
 30
0.0
 11
3226.618480879191
 21
1032.785989520138
 31
0.0
  0
LINE
  5
F5
330
1F
100
AcDbEntity
  8
0
  6
Continuous
 62
     2
100
AcDbLine
 10
3234.918480879191
 20
1021.984218393908
 30
0.0
 11
3234.918480879191
 21
1022.984218393908
 31
0.0
  0
LINE
  5
F6
330
1F
100
AcDbEntity
  8
0
  6
Continuous
 62
     7
100
AcDbLine
 10
3228.918480879191
 20
1015.984218393908
 30
0.0
 11
3228.918480879191
 21
994.7859895201358
 31
0.0
  0
LINE
  5
F7
330
1F
100
AcDbEntity
  8
0
  6
Continuous
 62
     2
100
AcDbLine
 10
3225.618480879191
 20
994.98598952037
 30
0.0
 11
3226.618480879191
 21
994.98598952037
 31
0.0
  0
LINE
  5
F8
330
1F
100
AcDbEntity
  8
0
  6
Continuous
 62
     2
100
AcDbLine
 10
3227.918480879191
 20
1015.984218393908
 30
0.0
 11
3227.918480879191
 21
994.7859895201358
 31
0.0
  0
LINE
  5
F9
330
1F
100
AcDbEntity
  8
0
  6
Continuous
 62
     7
100
AcDbLine
 10
3099.034080879186
 20
1032.785989520138
 30
0.0
 11
3099.034080879186
 21
994.9859895203697
 31
0.0
  0
LINE
  5
FA
330
1F
100
AcDbEntity
  8
0
  6
DASHED
 62
     3
100
AcDbLine
 10
3104.598143168576
 20
1018.885989520107
 30
0.0
 11
3104.598143168576
 21
1008.885989520108
 31
0.0
  0
LINE
  5
FB
330
1F
100
AcDbEntity
  8
0
  6
Continuous
 62
     2
100
AcDbLine
 10
3100.034080879186
 20
1032.785989520138
 30
0.0
 11
3100.034080879186
 21
994.9859895203697
 31
0.0
  0
LINE
  5
FC
330
1F
100
AcDbEntity
  8
0
  6
Continuous
 62
     2
100
AcDbLine
 10
3104.607058241228
 20
997.8550682122324
 30
0.0
 11
3105.11944853354
 21
998.3674585045447
 31
0.0
  0
LINE
  5
FD
330
1F
100
AcDbEntity
  8
0
  6
Continuous
 62
     7
100
AcDbLine
 10
3104.607058241228
 20
1029.91697178247
 30
0.0
 11
3104.607058241228
 21
997.8550682122324
 31
0.0
  0
LINE
  5
FE
330
1F
100
AcDbEntity
  8
0
  6
Continuous
 62
     2
100
AcDbLine
 10
3217.918480879192
 20
984.7859895201358
 30
0.0
 11
3217.918480879192
 21
983.7859895201358
 31
0.0
  0
LINE
  5
FF
330
1F
100
AcDbEntity
  8
0
  6
Continuous
 62
     7
100
AcDbLine
 10
3221.045503517149
 20
997.8550682122326
 30
0.0
 11
3221.045503517149
 21
1029.91697178247
 31
0.0
  0
LINE
  5
100
330
1F
100
AcDbEntity
  8
0
  6
Continuous
 62
     2
100
AcDbLine
 10
3221.045503517149
 20
997.8550682122326
 30
0.0
 11
3220.533113649199
 21
998.3674580801822
 31
0.0
  0
LINE
  5
101
330
1F
100
AcDbEntity
  8
0
  6
Continuous
 62
     2
100
AcDbLine
 10
3321.199298947226
 20
991.7859895201378
 30
0.0
 11
3321.199298947226
 21
983.7859895201377
 31
0.0
  0
LINE
  5
102
330
1F
100
AcDbEntity
  8
0
  6
Continuous
 62
     7
100
AcDbLine
 10
3316.199298947226
 20
983.7859895201378
 30
0.0
 11
3321.199298947226
 21
983.7859895201377
 31
0.0
  0
LINE
  5
103
330
1F
100
AcDbEntity
  8
0
  6
Continuous
 62
     7
100
AcDbLine
 10
3316.199298947226
 20
997.7859895201377
 30
0.0
 11
3316.199298947226
 21
991.7859895201378
 31
0.0
  0
LINE
  5
104
330
1F
100
AcDbEntity
  8
0
  6
Continuous
 62
     2
100
AcDbLine
 10
3316.199298947226
 20
997.7859895201377
 30
0.0
 11
3321.199298947226
 21
997.7859895201377
 31
0.0
  0
LINE
  5
105
330
1F
100
AcDbEntity
  8
0
  6
Continuous
 62
     2
100
AcDbLine
 10
3321.199298947226
 20
1005.785989520138
 30
0.0
 11
3321.199298947226
 21
997.7859895201377
 31
0.0
  0
LINE
  5
106
330
1F
100
AcDbEntity
  8
0
  6
Continuous
 62
     7
100
AcDbLine
 10
3316.199298947226
 20
1005.785989520138
 30
0.0
 11
3321.199298947226
 21
1005.785989520138
 31
0.0
  0
LINE
  5
107
330
1F
100
AcDbEntity
  8
0
  6
Continuous
 62
     2
100
AcDbLine
 10
3321.199298947226
 20
1005.785989520138
 30
0.0
 11
3321.199298947226
 21
1011.785989520138
 31
0.0
  0
LINE
  5
108
330
1F
100
AcDbEntity
  8
0
  6
Continuous
 62
     7
100
AcDbLine
 10
3316.199298947226
 20
1032.98421839391
 30
0.0
 11
3316.199298947226
 21
1011.785989520138
 31
0.0
  0
LINE
  5
109
330
1F
100
AcDbEntity
  8
0
  6
Continuous
 62
     2
100
AcDbLine
 10
3316.199298947226
 20
991.7859895201378
 30
0.0
 11
3321.199298947226
 21
991.7859895201378
 31
0.0
  0
LINE
  5
10A
330
1F
100
AcDbEntity
  8
0
  6
Continuous
 62
     2
100
AcDbLine
 10
3330.699298947226
 20
1032.78598952014
 30
0.0
 11
3330.699298947226
 21
994.9859895203718
 31
0.0
  0
LINE
  5
10B
330
1F
100
AcDbEntity
  8
0
  6
Continuous
 62
     7
100
AcDbLine
 10
3331.699298947226
 20
1032.78598952014
 30
0.0
 11
3331.699298947226
 21
1029.916971782472
 31
0.0
  0
LINE
  5
10C
330
1F
100
AcDbEntity
  8
0
  6
Continuous
 62
     2
100
AcDbLine
 10
3331.699298947226
 20
1032.78598952014
 30
0.0
 11
3330.699298947226
 21
1032.78598952014
 31
0.0
  0
LINE
  5
10D
330
1F
100
AcDbEntity
  8
0
  6
Continuous
 62
     2
100
AcDbLine
 10
3330.699298947226
 20
1041.38598952014
 30
0.0
 11
3330.699298947226
 21
1032.78598952014
 31
0.0
  0
LINE
  5
10E
330
1F
100
AcDbEntity
  8
0
  6
Continuous
 62
     2
100
AcDbLine
 10
3321.199298947226
 20
1011.785989520138
 30
0.0
 11
3321.199298947226
 21
1032.98421839391
 31
0.0
  0
LINE
  5
10F
330
1F
100
AcDbEntity
  8
0
  6
Continuous
 62
     2
100
AcDbLine
 10
3346.372219013696
 20
1029.40458212306
 30
0.0
 11
3331.699298947226
 21
1029.916971782472
 31
0.0
  0
LINE
  5
110
330
1F
100
AcDbEntity
  8
0
  6
Continuous
 62
     7
100
AcDbLine
 10
3316.199298947226
 20
983.7859895201378
 30
0.0
 11
3316.199298947226
 21
991.7859895201378
 31
0.0
  0
LINE
  5
111
330
1F
100
AcDbEntity
  8
0
  6
Continuous
 62
     2
100
AcDbLine
 10
3322.199298947226
 20
1032.78598952014
 30
0.0
 11
3330.699298947226
 21
1032.78598952014
 31
0.0
  0
LINE
  5
112
330
1F
100
AcDbEntity
  8
0
  6
Continuous
 62
     7
100
AcDbLine
 10
3331.699298947226
 20
1029.916971782472
 30
0.0
 11
3331.699298947226
 21
997.8550682122344
 31
0.0
  0
LINE
  5
113
330
1F
100
AcDbEntity
  8
0
  6
Continuous
 62
     7
100
AcDbLine
 10
3316.199298947226
 20
1005.785989520138
 30
0.0
 11
3316.199298947226
 21
1011.785989520138
 31
0.0
  0
LINE
  5
114
330
1F
100
AcDbEntity
  8
0
  6
Continuous
 62
     7
100
AcDbLine
 10
3316.199298947226
 20
1005.785989520138
 30
0.0
 11
3316.199298947226
 21
997.7859895201377
 31
0.0
  0
LINE
  5
115
330
1F
100
AcDbEntity
  8
0
  6
Continuous
 62
     7
100
AcDbLine
 10
3322.199298947226
 20
1004.785989520138
 30
0.0
 11
3322.199298947226
 21
997.7859895201377
 31
0.0
  0
LINE
  5
116
330
1F
100
AcDbEntity
  8
0
  6
Continuous
 62
     7
100
AcDbLine
 10
3322.199298947226
 20
1004.785989520138
 30
0.0
 11
3322.199298947226
 21
1011.785989520138
 31
0.0
  0
LINE
  5
117
330
1F
100
AcDbEntity
  8
0
  6
Continuous
 62
     7
100
AcDbLine
 10
3322.199298947226
 20
1011.785989520138
 30
0.0
 11
3322.199298947226
 21
1032.78598952014
 31
0.0
  0
LINE
  5
118
330
1F
100
AcDbEntity
  8
0
  6
Continuous
 62
     7
100
AcDbLine
 10
3331.699298947226
 20
1040.38598952014
 30
0.0
 11
3331.699298947226
 21
1036.413012158096
 31
0.0
  0
LINE
  5
119
330
1F
100
AcDbEntity
  8
0
  6
Continuous
 62
     7
100
AcDbLine
 10
3322.199298947226
 20
1041.38598952014
 30
0.0
 11
3330.699298947226
 21
1041.38598952014
 31
0.0
  0
LINE
  5
11A
330
1F
100
AcDbEntity
  8
0
  6
Continuous
 62
     7
100
AcDbLine
 10
3345.745020544612
 20
1035.922524751848
 30
0.0
 11
3331.699298947226
 21
1036.413012158096
 31
0.0
  0
LINE
  5
11B
330
1F
100
AcDbEntity
  8
0
  6
Continuous
 62
     2
100
AcDbLine
 10
3321.199298947226
 20
1011.785989520138
 30
0.0
 11
3322.199298947226
 21
1011.785989520138
 31
0.0
  0
LINE
  5
11C
330
1F
100
AcDbEntity
  8
0
  6
Continuous
 62
     2
100
AcDbLine
 10
3316.199298947226
 20
1011.785989520138
 30
0.0
 11
3321.199298947226
 21
1011.785989520138
 31
0.0
  0
LINE
  5
11D
330
1F
100
AcDbEntity
  8
0
  6
Continuous
 62
     7
100
AcDbLine
 10
3350.199296205971
 20
1010.485989520193
 30
0.0
 11
3350.199296205971
 21
1017.285989520084
 31
0.0
  0
LINE
  5
11E
330
1F
100
AcDbEntity
  8
0
  6
Continuous
 62
     7
100
AcDbLine
 10
3331.699298947226
 20
1036.413012158096
 30
0.0
 11
3331.699298947226
 21
1032.78598952014
 31
0.0
  0
LINE
  5
11F
330
1F
100
AcDbEntity
  8
0
  6
Continuous
 62
     7
100
AcDbLine
 10
3316.199298947226
 20
1032.98421839391
 30
0.0
 11
3316.199298947226
 21
1043.98421839391
 31
0.0
  0
LINE
  5
120
330
1F
100
AcDbEntity
  8
0
  6
Continuous
 62
     7
100
AcDbLine
 10
3316.199298947226
 20
1043.98421839391
 30
0.0
 11
3321.199298947226
 21
1043.98421839391
 31
0.0
  0
LINE
  5
121
330
1F
100
AcDbEntity
  8
0
  6
Continuous
 62
     7
100
AcDbLine
 10
3322.199298947226
 20
1032.78598952014
 30
0.0
 11
3322.199298947226
 21
1032.98421839391
 31
0.0
  0
LINE
  5
122
330
1F
100
AcDbEntity
  8
0
  6
Continuous
 62
     2
100
AcDbLine
 10
3321.199298947226
 20
1043.98421839391
 30
0.0
 11
3321.199298947226
 21
1032.98421839391
 31
0.0
  0
LINE
  5
123
330
1F
100
AcDbEntity
  8
0
  6
Continuous
 62
     7
100
AcDbLine
 10
3322.199298947226
 20
1042.98421839391
 30
0.0
 11
3322.199298947226
 21
1041.38598952014
 31
0.0
  0
LINE
  5
124
330
1F
100
AcDbEntity
  8
0
  6
Continuous
 62
     2
100
AcDbLine
 10
3322.199298947226
 20
1032.98421839391
 30
0.0
 11
3321.199298947226
 21
1032.98421839391
 31
0.0
  0
LINE
  5
125
330
1F
100
AcDbEntity
  8
0
  6
Continuous
 62
     2
100
AcDbLine
 10
3316.199298947226
 20
1032.98421839391
 30
0.0
 11
3321.199298947226
 21
1032.98421839391
 31
0.0
  0
LINE
  5
126
330
1F
100
AcDbEntity
  8
0
  6
Continuous
 62
     7
100
AcDbLine
 10
3322.199298947226
 20
1041.38598952014
 30
0.0
 11
3322.199298947226
 21
1032.98421839391
 31
0.0
  0
LINE
  5
127
330
1F
100
AcDbEntity
  8
0
  6
Continuous
 62
     2
100
AcDbLine
 10
3322.199298947226
 20
997.7859895201377
 30
0.0
 11
3321.199298947226
 21
997.7859895201377
 31
0.0
  0
LINE
  5
128
330
1F
100
AcDbEntity
  8
0
  6
Continuous
 62
     7
100
AcDbLine
 10
3322.199298947226
 20
994.9859895203718
 30
0.0
 11
3322.199298947226
 21
997.7859895201377
 31
0.0
  0
LINE
  5
129
330
1F
100
AcDbEntity
  8
0
  6
Continuous
 62
     2
100
AcDbLine
 10
3321.199298947226
 20
991.7859895201378
 30
0.0
 11
3321.199298947226
 21
997.7859895201377
 31
0.0
  0
LINE
  5
12A
330
1F
100
AcDbEntity
  8
0
  6
Continuous
 62
     7
100
AcDbLine
 10
3331.699298947226
 20
997.8550682122344
 30
0.0
 11
3331.699298947226
 21
994.9859895203718
 31
0.0
  0
LINE
  5
12B
330
1F
100
AcDbEntity
  8
0
  6
Continuous
 62
     2
100
AcDbLine
 10
3330.699298947226
 20
994.9859895203718
 30
0.0
 11
3330.699298947226
 21
986.3859895203716
 31
0.0
  0
LINE
  5
12C
330
1F
100
AcDbEntity
  8
0
  6
Continuous
 62
     7
100
AcDbLine
 10
3322.199298947226
 20
991.7859895201378
 30
0.0
 11
3322.199298947226
 21
986.3859895203716
 31
0.0
  0
LINE
  5
12D
330
1F
100
AcDbEntity
  8
0
  6
Continuous
 62
     7
100
AcDbLine
 10
3322.199298947226
 20
986.3859895203716
 30
0.0
 11
3322.199298947226
 21
984.7859895201378
 31
0.0
  0
LINE
  5
12E
330
1F
100
AcDbEntity
  8
0
  6
Continuous
 62
     7
100
AcDbLine
 10
3322.199298947226
 20
986.3859895203716
 30
0.0
 11
3330.699298947226
 21
986.3859895203716
 31
0.0
  0
LINE
  5
12F
330
1F
100
AcDbEntity
  8
0
  6
Continuous
 62
     2
100
AcDbLine
 10
3322.199298947226
 20
991.7859895201378
 30
0.0
 11
3321.199298947226
 21
991.7859895201378
 31
0.0
  0
LINE
  5
130
330
1F
100
AcDbEntity
  8
0
  6
Continuous
 62
     2
100
AcDbLine
 10
3331.699298947226
 20
994.9859895203718
 30
0.0
 11
3330.699298947226
 21
994.9859895203718
 31
0.0
  0
LINE
  5
131
330
1F
100
AcDbEntity
  8
0
  6
Continuous
 62
     7
100
AcDbLine
 10
3331.699298947226
 20
994.9859895203718
 30
0.0
 11
3331.699298947226
 21
991.3590278366104
 31
0.0
  0
LINE
  5
132
330
1F
100
AcDbEntity
  8
0
  6
Continuous
 62
     2
100
AcDbLine
 10
3322.199298947226
 20
994.9859895203718
 30
0.0
 11
3330.699298947226
 21
994.9859895203718
 31
0.0
  0
LINE
  5
133
330
1F
100
AcDbEntity
  8
0
  6
Continuous
 62
     7
100
AcDbLine
 10
3331.699298947226
 20
991.3590278366104
 30
0.0
 11
3331.699298947226
 21
987.3859895203716
 31
0.0
  0
LINE
  5
134
330
1F
100
AcDbEntity
  8
0
  6
Continuous
 62
     7
100
AcDbLine
 10
3322.199298947226
 20
991.7859895201378
 30
0.0
 11
3322.199298947226
 21
994.9859895203718
 31
0.0
  0
LINE
  5
135
330
1F
100
AcDbEntity
  8
0
  6
Continuous
 62
     7
100
AcDbLine
 10
3331.699298947226
 20
991.3590278366104
 30
0.0
 11
3345.745036579258
 21
991.8495158028
 31
0.0
  0
LINE
  5
136
330
1F
100
AcDbEntity
  8
0
  6
Continuous
 62
     2
100
AcDbLine
 10
3331.699298947226
 20
997.8550682122344
 30
0.0
 11
3346.372237137592
 21
998.367458504547
 31
0.0
  0
LINE
  5
137
330
1F
100
AcDbEntity
  8
0
  6
Continuous
 62
     2
100
AcDbLine
 10
3118.431385586996
 20
1029.927905538132
 30
0.0
 11
3126.832489263121
 21
1025.125795391073
 31
0.0
  0
LINE
  5
138
330
1F
100
AcDbEntity
  8
0
  6
Continuous
 62
     2
100
AcDbLine
 10
3118.101188469879
 20
1020.034847761773
 30
0.0
 11
3109.700176487119
 21
1024.836798282175
 31
0.0
  0
LINE
  5
139
330
1F
100
AcDbEntity
  8
0
  6
Continuous
 62
     2
100
AcDbLine
 10
3126.832489263121
 20
1024.836959496954
 30
0.0
 11
3118.431385586996
 21
1020.034849349894
 31
0.0
  0
LINE
  5
13A
330
1F
100
AcDbEntity
  8
0
  6
Continuous
 62
     2
100
AcDbLine
 10
3126.414735771659
 20
1024.981377444013
 30
0.0
 11
3118.266285639245
 21
1029.639069644014
 31
0.0
  0
LINE
  5
13B
330
1F
100
AcDbEntity
  8
0
  6
Continuous
 62
     2
100
AcDbLine
 10
3118.266285639245
 20
1020.323685244014
 30
0.0
 11
3126.414735771659
 21
1024.981377444013
 31
0.0
  0
LINE
  5
13C
330
1F
100
AcDbEntity
  8
0
  6
Continuous
 62
     2
100
AcDbLine
 10
3122.42484705167
 20
1023.275496935575
 30
0.0
 11
3121.094077851655
 21
1022.514879255425
 31
0.0
  0
LINE
  5
13D
330
1F
100
AcDbEntity
  8
0
  6
Continuous
 62
     2
100
AcDbLine
 10
3121.260516339245
 20
1023.376428801017
 30
0.0
 11
3122.092339426835
 21
1023.851843485268
 31
0.0
  0
LINE
  5
13E
330
1F
100
AcDbEntity
  8
0
  6
Continuous
 62
     2
100
AcDbLine
 10
3121.260516339245
 20
1024.648685144014
 30
0.0
 11
3121.260516339245
 21
1023.376428801017
 31
0.0
  0
LINE
  5
13F
330
1F
100
AcDbEntity
  8
0
  6
Continuous
 62
     2
100
AcDbLine
 10
3121.260516339245
 20
1024.648685144014
 30
0.0
 11
3122.258593239244
 21
1024.648685144014
 31
0.0
  0
LINE
  5
140
330
1F
100
AcDbEntity
  8
0
  6
Continuous
 62
     2
100
AcDbLine
 10
3118.266285639245
 20
1026.280800987953
 30
0.0
 11
3119.308934855801
 21
1028.086722405501
 31
0.0
  0
LINE
  5
141
330
1F
100
AcDbEntity
  8
0
  6
Continuous
 62
     2
100
AcDbLine
 10
3121.260516339245
 20
1025.314069744014
 30
0.0
 11
3122.258593239244
 21
1025.314069744014
 31
0.0
  0
LINE
  5
142
330
1F
100
AcDbEntity
  8
0
  6
Continuous
 62
     2
100
AcDbLine
 10
3122.092339426831
 20
1026.110855185153
 30
0.0
 11
3121.260516339245
 21
1026.586329151843
 31
0.0
  0
LINE
  5
143
330
1F
100
AcDbEntity
  8
0
  6
Continuous
 62
     2
100
AcDbLine
 10
3121.094077851657
 20
1027.447875632601
 30
0.0
 11
3122.424847051635
 21
1026.687201734864
 31
0.0
  0
LINE
  5
144
330
1F
100
AcDbEntity
  8
0
  6
Continuous
 62
     2
100
AcDbLine
 10
3119.264362539245
 20
1026.678751688613
 30
0.0
 11
3119.264362539245
 21
1022.042378632525
 31
0.0
  0
LINE
  5
145
330
1F
100
AcDbEntity
  8
0
  6
Continuous
 62
     2
100
AcDbLine
 10
3120.595131739244
 20
1027.159702357751
 30
0.0
 11
3120.595131739244
 21
1022.803052530276
 31
0.0
  0
LINE
  5
146
330
1F
100
AcDbEntity
  8
0
  6
Continuous
 62
     2
100
AcDbLine
 10
3119.264362539245
 20
1026.678751688613
 30
0.0
 11
3118.410345630967
 21
1025.199551012953
 31
0.0
  0
LINE
  5
147
330
1F
100
AcDbEntity
  8
0
  6
Continuous
 62
     2
100
AcDbLine
 10
3121.260516339245
 20
1026.586329151843
 30
0.0
 11
3121.260516339245
 21
1025.314069744014
 31
0.0
  0
LINE
  5
148
330
1F
100
AcDbEntity
  8
0
  6
Continuous
 62
     2
100
AcDbLine
 10
3119.929747139245
 20
1027.920376255501
 30
0.0
 11
3119.929747139245
 21
1022.042378632525
 31
0.0
  0
LINE
  5
149
330
1F
100
AcDbEntity
  8
0
  6
Continuous
 62
     2
100
AcDbLine
 10
3118.266285639245
 20
1029.639069644014
 30
0.0
 11
3110.117653574426
 21
1024.981377444013
 31
0.0
  0
LINE
  5
14A
330
1F
100
AcDbEntity
  8
0
  6
Continuous
 62
     2
100
AcDbLine
 10
3117.223636422689
 20
1028.086722405501
 30
0.0
 11
3118.266285639245
 21
1026.280800987953
 31
0.0
  0
LINE
  5
14B
330
1F
100
AcDbEntity
  8
0
  6
Continuous
 62
     2
100
AcDbLine
 10
3118.122225647522
 20
1025.199551012953
 30
0.0
 11
3117.268208739244
 21
1026.678751688613
 31
0.0
  0
LINE
  5
14C
330
1F
100
AcDbEntity
  8
0
  6
Continuous
 62
     2
100
AcDbLine
 10
3117.767339526831
 20
1021.183687341447
 30
0.0
 11
3115.604931914415
 21
1022.419702047896
 31
0.0
  0
LINE
  5
14D
330
1F
100
AcDbEntity
  8
0
  6
Continuous
 62
     2
100
AcDbLine
 10
3115.937439539245
 20
1022.996048597593
 30
0.0
 11
3118.099847151684
 21
1021.76003389113
 31
0.0
  0
LINE
  5
14E
330
1F
100
AcDbEntity
  8
0
  6
Continuous
 62
     2
100
AcDbLine
 10
3110.117653574426
 20
1024.981377444013
 30
0.0
 11
3118.266285639245
 21
1020.323685244014
 31
0.0
  0
LINE
  5
14F
330
1F
100
AcDbEntity
  8
0
  6
Continuous
 62
     2
100
AcDbLine
 10
3116.602824139244
 20
1027.920376255501
 30
0.0
 11
3116.602824139244
 21
1023.563670210417
 31
0.0
  0
LINE
  5
150
330
1F
100
AcDbEntity
  8
0
  6
Continuous
 62
     2
100
AcDbLine
 10
3117.268208739244
 20
1026.678751688613
 30
0.0
 11
3117.268208739244
 21
1023.563670210417
 31
0.0
  0
LINE
  5
151
330
1F
100
AcDbEntity
  8
0
  6
Continuous
 62
     2
100
AcDbLine
 10
3114.606670339245
 20
1026.39908467761
 30
0.0
 11
3114.606670339245
 21
1023.563670210417
 31
0.0
  0
LINE
  5
152
330
1F
100
AcDbEntity
  8
0
  6
Continuous
 62
     2
100
AcDbLine
 10
3113.941285739245
 20
1026.39908467761
 30
0.0
 11
3113.941285739245
 21
1023.563670210417
 31
0.0
  0
LINE
  5
153
330
1F
100
AcDbEntity
  8
0
  6
Continuous
 62
     2
100
AcDbLine
 10
3115.937439539245
 20
1027.166836139148
 30
0.0
 11
3115.937439539245
 21
1022.996048597593
 31
0.0
  0
LINE
  5
154
330
1F
100
AcDbEntity
  8
0
  6
Continuous
 62
     2
100
AcDbLine
 10
3115.272054939245
 20
1027.166836139148
 30
0.0
 11
3115.272054939245
 21
1022.996048597594
 31
0.0
  0
LINE
  5
155
330
1F
100
AcDbEntity
  8
0
  6
Continuous
 62
     2
100
AcDbLine
 10
3109.700176487119
 20
1025.125956605853
 30
0.0
 11
3118.101188469879
 21
1029.927907126253
 31
0.0
  0
LWPOLYLINE
  5
156
330
1F
100
AcDbEntity
  8
Skizziergeometrie_ISO_
  6
Continuous
 62
     7
100
AcDbPolyline
 90
        2
 70
     0
 43
0.5
 10
3106.199298947225
 20
808.6925014954597
 10
3106.199298947225
 20
738.6925014954597
  0
LWPOLYLINE
  5
157
330
1F
100
AcDbEntity
  8
Skizziergeometrie_ISO_
  6
Continuous
 62
     7
100
AcDbPolyline
 90
        2
 70
     0
 43
0.5
 10
3445.549288121374
 20
747.2673583273709
 10
3445.549288121374
 20
757.1982933399529
  0
LWPOLYLINE
  5
158
330
1F
100
AcDbEntity
  8
Skizziergeometrie_ISO_
  6
Continuous
 62
     7
100
AcDbPolyline
 90
        2
 70
     0
 43
0.5
 10
3445.549288121374
 20
757.1982933399529
 10
3443.83797408182
 20
754.2342104757415
  0
LWPOLYLINE
  5
159
330
1F
100
AcDbEntity
  8
Skizziergeometrie_ISO_
  6
Continuous
 62
     7
100
AcDbPolyline
 90
        2
 70
     0
 43
0.5
 10
3443.260623812631
 20
754.2342104757415
 10
3441.549309773077
 20
757.1982933399529
  0
LWPOLYLINE
  5
15A
330
1F
100
AcDbEntity
  8
Skizziergeometrie_ISO_
  6
Continuous
 62
     7
100
AcDbPolyline
 90
        2
 70
     0
 43
0.5
 10
3441.549309773077
 20
757.1982933399529
 10
3441.549309773077
 20
750.3859627135865
  0
LWPOLYLINE
  5
15B
330
1F
100
AcDbEntity
  8
Skizziergeometrie_ISO_
  6
Continuous
 62
     7
100
AcDbPolyline
 90
        2
 70
     0
 43
0.5
 10
3426.716428396944
 20
753.9812300241423
 10
3443.549298947226
 20
763.6925014954613
  0
LWPOLYLINE
  5
15C
330
1F
100
AcDbEntity
  8
Skizziergeometrie_ISO_
  6
Continuous
 62
     7
100
AcDbPolyline
 90
        2
 70
     0
 43
0.5
 10
3443.549298947226
 20
763.6925014954613
 10
3460.382169497508
 20
753.9812300241423
  0
LWPOLYLINE
  5
15D
330
1F
100
AcDbEntity
  8
Skizziergeometrie_ISO_
  6
Continuous
 62
     7
100
AcDbPolyline
 90
        2
 70
     0
 43
0.5
 10
3460.382169497508
 20
753.4037729667771
 10
3443.549298947226
 20
743.6925014954581
  0
LWPOLYLINE
  5
15E
330
1F
100
AcDbEntity
  8
Skizziergeometrie_ISO_
  6
Continuous
 62
     7
100
AcDbPolyline
 90
        2
 70
     0
 43
0.5
 10
3443.549298947226
 20
743.6925014954581
 10
3426.716428396944
 20
753.4037729667771
  0
LWPOLYLINE
  5
15F
330
1F
100
AcDbEntity
  8
Skizziergeometrie_ISO_
  6
Continuous
 62
     7
100
AcDbPolyline
 90
        2
 70
     0
 43
0.5
 10
3440.215976439745
 20
750.3859627135865
 10
3440.215976439743
 20
760.1966174288215
  0
LWPOLYLINE
  5
160
330
1F
100
AcDbEntity
  8
Skizziergeometrie_ISO_
  6
Continuous
 62
     7
100
AcDbPolyline
 90
        2
 70
     0
 43
0.5
 10
3441.204843806992
 20
760.4615836412967
 10
3443.549298947226
 20
756.4008682223451
  0
LWPOLYLINE
  5
161
330
1F
100
AcDbEntity
  8
Skizziergeometrie_ISO_
  6
Continuous
 62
     7
100
AcDbPolyline
 90
        2
 70
     0
 43
0.5
 10
3446.882621454708
 20
747.2673583273709
 10
3446.882621454708
 20
760.1966174288214
  0
LWPOLYLINE
  5
162
330
1F
100
AcDbEntity
  8
Skizziergeometrie_ISO_
  6
Continuous
 62
     7
100
AcDbPolyline
 90
        2
 70
     0
 43
0.5
 10
3445.89375408746
 20
760.4615836412967
 10
3443.549298947226
 20
756.4008682223451
  0
LWPOLYLINE
  5
163
330
1F
100
AcDbEntity
  8
Skizziergeometrie_ISO_
  6
Continuous
 62
     7
100
AcDbPolyline
 90
        2
 70
     0
 43
0.5
 10
3437.549300964832
 20
749.2325451711837
 10
3437.549300964832
 20
758.5791780434059
  0
LWPOLYLINE
  5
164
330
1F
100
AcDbEntity
  8
Skizziergeometrie_ISO_
  6
Continuous
 62
     7
100
AcDbPolyline
 90
        2
 70
     0
 43
0.5
 10
3438.882634298166
 20
758.5791780434059
 10
3438.882634298166
 20
749.2325426275213
  0
LWPOLYLINE
  5
165
330
1F
100
AcDbEntity
  8
Skizziergeometrie_ISO_
  6
Continuous
 62
     7
100
AcDbPolyline
 90
        2
 70
     0
 43
0.5
 10
3438.882634298166
 20
749.2325426275213
 10
3443.217906910791
 20
746.7314238125435
  0
LWPOLYLINE
  5
166
330
1F
100
AcDbEntity
  8
Skizziergeometrie_ISO_
  6
Continuous
 62
     7
100
AcDbPolyline
 90
        2
 70
     0
 43
0.5
 10
3442.55161030614
 20
745.576509697812
 10
3438.216339896796
 20
748.0776272416643
  0
LWPOLYLINE
  5
167
330
1F
100
AcDbEntity
  8
Skizziergeometrie_ISO_
  6
Continuous
 62
     7
100
AcDbPolyline
 90
        2
 70
     0
 43
0.5
 10
3436.215965613892
 20
756.9990402773329
 10
3436.215965613892
 20
750.3859627135865
  0
LWPOLYLINE
  5
168
330
1F
100
AcDbEntity
  8
Skizziergeometrie_ISO_
  6
Continuous
 62
     7
100
AcDbPolyline
 90
        2
 70
     0
 43
0.5
 10
3434.882632280559
 20
750.3859627135865
 10
3434.882632280559
 20
756.9990402773329
  0
LWPOLYLINE
  5
169
102
{ACAD_REACTORS
330
269
102
}
330
1F
100
AcDbEntity
  8
Skizziergeometrie_ISO_
  6
Continuous
 62
     7
100
AcDbPolyline
 90
        2
 70
     0
 43
0.5
 10
3449.215778565279
 20
759.1566351007717
 10
3451.954684026472
 20
757.5764973346987
  0
LWPOLYLINE
  5
16A
102
{ACAD_REACTORS
330
269
102
}
330
1F
100
AcDbEntity
  8
Skizziergeometrie_ISO_
  6
Continuous
 62
     7
100
AcDbPolyline
 90
        2
 70
     0
 43
0.5
 10
3451.28838742182
 20
756.4215832199671
 10
3449.54929692962
 20
757.4249046577745
  0
LWPOLYLINE
  5
16B
102
{ACAD_REACTORS
330
269
102
}
330
1F
100
AcDbEntity
  8
Skizziergeometrie_ISO_
  6
Continuous
 62
     7
100
AcDbPolyline
 90
        2
 70
     0
 43
0.5
 10
3449.54929692962
 20
757.4249046577745
 10
3449.54929692962
 20
754.3591681621265
  0
LWPOLYLINE
  5
16C
102
{ACAD_REACTORS
330
269
102
}
330
1F
100
AcDbEntity
  8
Skizziergeometrie_ISO_
  6
Continuous
 62
     7
100
AcDbPolyline
 90
        2
 70
     0
 43
0.5
 10
3449.54929692962
 20
754.3591681621265
 10
3451.621535724146
 20
754.3591681621265
  0
LWPOLYLINE
  5
16D
102
{ACAD_REACTORS
330
269
102
}
330
1F
100
AcDbEntity
  8
Skizziergeometrie_ISO_
  6
Continuous
 62
     7
100
AcDbPolyline
 90
        2
 70
     0
 43
0.5
 10
3451.621535724146
 20
753.0258348287929
 10
3449.54929692962
 20
753.0258348287929
  0
LWPOLYLINE
  5
16E
102
{ACAD_REACTORS
330
269
102
}
330
1F
100
AcDbEntity
  8
Skizziergeometrie_ISO_
  6
Continuous
 62
     7
100
AcDbPolyline
 90
        2
 70
     0
 43
0.5
 10
3449.54929692962
 20
753.0258348287929
 10
3449.54929692962
 20
749.9600983331449
  0
LWPOLYLINE
  5
16F
102
{ACAD_REACTORS
330
269
102
}
330
1F
100
AcDbEntity
  8
Skizziergeometrie_ISO_
  6
Continuous
 62
     7
100
AcDbPolyline
 90
        2
 70
     0
 43
0.5
 10
3449.54929692962
 20
749.9600983331449
 10
3451.28838742182
 20
750.9634197709523
  0
LWPOLYLINE
  5
170
102
{ACAD_REACTORS
330
269
102
}
330
1F
100
AcDbEntity
  8
Skizziergeometrie_ISO_
  6
Continuous
 62
     7
100
AcDbPolyline
 90
        2
 70
     0
 43
0.5
 10
3451.954684026472
 20
749.8085056562207
 10
3449.215778565279
 20
748.2283678901478
  0
LWPOLYLINE
  5
171
102
{ACAD_REACTORS
330
269
102
}
330
1F
100
AcDbEntity
  8
Skizziergeometrie_ISO_
  6
Continuous
 62
     7
100
AcDbPolyline
 90
        2
 70
     0
 43
0.5
 10
3448.215963596286
 20
748.8058249475135
 10
3448.215963596286
 20
758.5791780434059
  0
LWPOLYLINE
  5
172
330
1F
100
AcDbEntity
  8
Skizziergeometrie_ISO_
  6
Continuous
 62
     7
100
AcDbPolyline
 90
        2
 70
     0
 43
0.5
 10
3420.899298947226
 20
768.6925014954597
 10
3420.899298947226
 20
738.6925014954597
  0
LWPOLYLINE
  5
173
330
1F
100
AcDbEntity
  8
Skizziergeometrie_ISO_
  6
Continuous
 62
     7
100
AcDbPolyline
 90
        2
 70
     0
 43
0.5
 10
3386.199298947225
 20
768.6925014954597
 10
3386.199298947225
 20
738.6925014954597
  0
LWPOLYLINE
  5
174
330
1F
100
AcDbEntity
  8
Skizziergeometrie_ISO_
  6
Continuous
 62
     7
100
AcDbPolyline
 90
        2
 70
     0
 43
0.5
 10
3166.199298947226
 20
738.6925014954597
 10
3166.199298947226
 20
768.6925014954597
  0
LWPOLYLINE
  5
175
330
1F
100
AcDbEntity
  8
Skizziergeometrie_ISO_
  6
Continuous
 62
     7
100
AcDbPolyline
 90
        2
 70
     0
 43
0.5
 10
3156.199298947225
 20
808.6925014954597
 10
3156.199298947225
 20
768.6925014954597
  0
LWPOLYLINE
  5
176
330
1F
100
AcDbEntity
  8
Skizziergeometrie_ISO_
  6
Continuous
 62
     7
100
AcDbPolyline
 90
        2
 70
     0
 43
0.5
 10
3120.199298947225
 20
808.6925014954597
 10
3120.199298947225
 20
768.6925014954597
  0
LWPOLYLINE
  5
177
330
1F
100
AcDbEntity
  8
Skizziergeometrie_ISO_
  6
Continuous
 62
     7
100
AcDbPolyline
 90
        2
 70
     0
 43
0.5
 10
3106.199298947225
 20
753.6925014954597
 10
3166.199298947226
 20
753.6925014954597
  0
LWPOLYLINE
  5
178
330
1F
100
AcDbEntity
  8
Skizziergeometrie_ISO_
  6
Continuous
 62
     7
100
AcDbPolyline
 90
        2
 70
     0
 43
0.5
 10
3106.199298947225
 20
768.6925014954597
 10
3466.199298947225
 20
768.6925014954597
  0
LWPOLYLINE
  5
179
330
1F
100
AcDbEntity
  8
Skizziergeometrie_ISO_
  6
Continuous
 62
     7
100
AcDbPolyline
 90
        2
 70
     0
 43
0.5
 10
3106.199298947225
 20
778.6925014954597
 10
3466.199298947225
 20
778.6925014954597
  0
LWPOLYLINE
  5
17A
330
1F
100
AcDbEntity
  8
Skizziergeometrie_ISO_
  6
Continuous
 62
     7
100
AcDbPolyline
 90
        2
 70
     0
 43
0.5
 10
3106.199298947225
 20
788.6925014954597
 10
3466.199298947225
 20
788.6925014954597
  0
LWPOLYLINE
  5
17B
330
1F
100
AcDbEntity
  8
Skizziergeometrie_ISO_
  6
Continuous
 62
     7
100
AcDbPolyline
 90
        2
 70
     0
 43
0.5
 10
3106.199298947225
 20
798.6925014954597
 10
3466.199298947225
 20
798.6925014954597
  0
LWPOLYLINE
  5
17C
330
1F
100
AcDbEntity
  8
Skizziergeometrie_ISO_
  6
Continuous
 62
     7
100
AcDbPolyline
 90
        2
 70
     0
 43
0.5
 10
3106.199298947225
 20
808.6925014954597
 10
3466.199298947225
 20
808.6925014954597
  0
LINE
  5
17D
330
1F
100
AcDbEntity
  8
0
  6
Continuous
 62
     7
100
AcDbLine
 10
3451.954684026472
 20
749.8085056562207
 30
0.0
 11
3449.215778565279
 21
748.2283678901478
 31
0.0
  0
LINE
  5
17E
330
1F
100
AcDbEntity
  8
0
  6
Continuous
 62
     7
100
AcDbLine
 10
3448.215963596286
 20
748.8058249475135
 30
0.0
 11
3448.215963596286
 21
758.5791780434059
 31
0.0
  0
LINE
  5
17F
330
1F
100
AcDbEntity
  8
0
  6
Continuous
 62
     7
100
AcDbLine
 10
3449.215778565279
 20
759.1566351007717
 30
0.0
 11
3451.954684026472
 21
757.5764973346987
 31
0.0
  0
LINE
  5
180
330
1F
100
AcDbEntity
  8
0
  6
Continuous
 62
     7
100
AcDbLine
 10
3451.28838742182
 20
756.4215832199671
 30
0.0
 11
3449.54929692962
 21
757.4249046577745
 31
0.0
  0
LINE
  5
181
330
1F
100
AcDbEntity
  8
0
  6
Continuous
 62
     7
100
AcDbLine
 10
3449.54929692962
 20
757.4249046577745
 30
0.0
 11
3449.54929692962
 21
754.3591681621265
 31
0.0
  0
LINE
  5
182
330
1F
100
AcDbEntity
  8
0
  6
Continuous
 62
     7
100
AcDbLine
 10
3449.54929692962
 20
754.3591681621265
 30
0.0
 11
3451.621535724146
 21
754.3591681621265
 31
0.0
  0
LINE
  5
183
330
1F
100
AcDbEntity
  8
0
  6
Continuous
 62
     7
100
AcDbLine
 10
3451.621535724146
 20
753.0258348287929
 30
0.0
 11
3449.54929692962
 21
753.0258348287929
 31
0.0
  0
LINE
  5
184
330
1F
100
AcDbEntity
  8
0
  6
Continuous
 62
     7
100
AcDbLine
 10
3449.54929692962
 20
753.0258348287929
 30
0.0
 11
3449.54929692962
 21
749.9600983331449
 31
0.0
  0
LINE
  5
185
330
1F
100
AcDbEntity
  8
0
  6
Continuous
 62
     7
100
AcDbLine
 10
3449.54929692962
 20
749.9600983331449
 30
0.0
 11
3451.28838742182
 21
750.9634197709523
 31
0.0
  0
LINE
  5
186
102
{ACAD_REACTORS
330
268
102
}
330
1F
100
AcDbEntity
  8
0
  6
Continuous
 62
     7
100
AcDbLine
 10
3440.215976439743
 20
760.1966174288215
 30
0.0
 11
3440.215976439745
 21
750.3859627135865
 31
0.0
  0
LINE
  5
187
102
{ACAD_REACTORS
330
268
102
}
330
1F
100
AcDbEntity
  8
0
  6
Continuous
 62
     7
100
AcDbLine
 10
3441.549309773077
 20
750.3859627135865
 30
0.0
 11
3441.549309773077
 21
757.1982933399529
 31
0.0
  0
LINE
  5
188
102
{ACAD_REACTORS
330
268
102
}
330
1F
100
AcDbEntity
  8
0
  6
Continuous
 62
     7
100
AcDbLine
 10
3441.549309773077
 20
757.1982933399529
 30
0.0
 11
3443.260623812631
 21
754.2342104757415
 31
0.0
  0
LINE
  5
189
102
{ACAD_REACTORS
330
268
102
}
330
1F
100
AcDbEntity
  8
0
  6
Continuous
 62
     7
100
AcDbLine
 10
3443.83797408182
 20
754.2342104757415
 30
0.0
 11
3445.549288121374
 21
757.1982933399529
 31
0.0
  0
LINE
  5
18A
102
{ACAD_REACTORS
330
268
102
}
330
1F
100
AcDbEntity
  8
0
  6
Continuous
 62
     7
100
AcDbLine
 10
3445.549288121374
 20
757.1982933399529
 30
0.0
 11
3445.549288121374
 21
747.2673583273709
 31
0.0
  0
LINE
  5
18B
102
{ACAD_REACTORS
330
268
102
}
330
1F
100
AcDbEntity
  8
0
  6
Continuous
 62
     7
100
AcDbLine
 10
3446.882621454708
 20
747.2673583273709
 30
0.0
 11
3446.882621454708
 21
760.1966174288214
 31
0.0
  0
LINE
  5
18C
102
{ACAD_REACTORS
330
268
102
}
330
1F
100
AcDbEntity
  8
0
  6
Continuous
 62
     7
100
AcDbLine
 10
3445.89375408746
 20
760.4615836412967
 30
0.0
 11
3443.549298947226
 21
756.4008682223451
 31
0.0
  0
LINE
  5
18D
102
{ACAD_REACTORS
330
268
102
}
330
1F
100
AcDbEntity
  8
0
  6
Continuous
 62
     7
100
AcDbLine
 10
3443.549298947226
 20
756.4008682223451
 30
0.0
 11
3441.204843806992
 21
760.4615836412967
 31
0.0
  0
LINE
  5
18E
102
{ACAD_REACTORS
330
267
102
}
330
1F
100
AcDbEntity
  8
0
  6
Continuous
 62
     7
100
AcDbLine
 10
3438.882634298166
 20
749.2325426275213
 30
0.0
 11
3438.882634298166
 21
758.5791780434059
 31
0.0
  0
LINE
  5
18F
102
{ACAD_REACTORS
330
267
102
}
330
1F
100
AcDbEntity
  8
0
  6
Continuous
 62
     7
100
AcDbLine
 10
3437.549300964832
 20
758.5791780434059
 30
0.0
 11
3437.549300964832
 21
749.2325451711837
 31
0.0
  0
LINE
  5
190
102
{ACAD_REACTORS
330
267
102
}
330
1F
100
AcDbEntity
  8
0
  6
Continuous
 62
     7
100
AcDbLine
 10
3438.216339896796
 20
748.0776272416643
 30
0.0
 11
3442.55161030614
 21
745.576509697812
 31
0.0
  0
LINE
  5
191
102
{ACAD_REACTORS
330
267
102
}
330
1F
100
AcDbEntity
  8
0
  6
Continuous
 62
     7
100
AcDbLine
 10
3443.217906910791
 20
746.7314238125435
 30
0.0
 11
3438.882634298166
 21
749.2325426275213
 31
0.0
  0
LINE
  5
192
102
{ACAD_REACTORS
330
266
102
}
330
1F
100
AcDbEntity
  8
0
  6
Continuous
 62
     7
100
AcDbLine
 10
3436.215965613892
 20
756.9990402773329
 30
0.0
 11
3436.215965613892
 21
750.3859627135865
 31
0.0
  0
LINE
  5
193
102
{ACAD_REACTORS
330
266
102
}
330
1F
100
AcDbEntity
  8
0
  6
Continuous
 62
     7
100
AcDbLine
 10
3434.882632280559
 20
750.3859627135865
 30
0.0
 11
3434.882632280559
 21
756.9990402773329
 31
0.0
  0
ARC
  5
194
330
1F
100
AcDbEntity
  8
0
  6
Continuous
 62
     2
100
AcDbCircle
 10
3268.300754348606
 20
1010.465200125495
 30
0.0
 40
79.00323902979017
100
AcDbArc
 50
351.1916594277355
 51
0.01487927443767
  0
ARC
  5
195
330
1F
100
AcDbEntity
  8
0
  6
Continuous
 62
     7
100
AcDbCircle
 10
3079.603852006928
 20
887.9450184306646
 30
0.0
 40
1.0
100
AcDbArc
 50
180.0
 51
270.0
  0
ARC
  5
196
330
1F
100
AcDbEntity
  8
0
  6
Continuous
 62
     7
100
AcDbCircle
 10
3159.220016487956
 20
890.4450184306646
 30
0.0
 40
1.50000000000045
100
AcDbArc
 50
185.0000000000027
 51
270.0
  0
ARC
  5
197
330
1F
100
AcDbEntity
  8
0
  6
Continuous
 62
     7
100
AcDbCircle
 10
3169.565094349728
 20
891.4450184306646
 30
0.0
 40
1.499999999999886
100
AcDbArc
 50
90.0
 51
175.000000000006
  0
ARC
  5
198
330
1F
100
AcDbEntity
  8
0
  6
Continuous
 62
     7
100
AcDbCircle
 10
3166.466146173572
 20
890.4450184306645
 30
0.0
 40
1.5
100
AcDbArc
 50
270.0
 51
355.000000000003
  0
ARC
  5
199
330
1F
100
AcDbEntity
  8
0
  6
Continuous
 62
     7
100
AcDbCircle
 10
3156.1210683118
 20
891.4450184306645
 30
0.0
 40
1.499999999999987
100
AcDbArc
 50
4.99999999999984
 51
90.0
  0
ARC
  5
19A
330
1F
100
AcDbEntity
  8
0
  6
Continuous
 62
     7
100
AcDbCircle
 10
3225.636480879191
 20
878.4450184306647
 30
0.0
 40
1.0
100
AcDbArc
 50
270.0
 51
0.0
  0
ARC
  5
19B
330
1F
100
AcDbEntity
  8
0
  6
Continuous
 62
     7
100
AcDbCircle
 10
3246.086480878669
 20
887.9450184306646
 30
0.0
 40
1.000000000000114
100
AcDbArc
 50
270.0
 51
0.0
  0
ARC
  5
19C
330
1F
100
AcDbEntity
  8
0
  6
Continuous
 62
     7
100
AcDbCircle
 10
3217.520399951753
 20
861.945021503641
 30
0.0
 40
3.000003110791605
100
AcDbArc
 50
270.0000089872906
 51
357.9999974138819
  0
ARC
  5
19D
330
1F
100
AcDbEntity
  8
0
  6
Continuous
 62
     7
100
AcDbCircle
 10
3100.052080879186
 20
878.4450184306647
 30
0.0
 40
1.0
100
AcDbArc
 50
180.0
 51
270.0
  0
ARC
  5
19E
330
1F
100
AcDbEntity
  8
0
  6
Continuous
 62
     7
100
AcDbCircle
 10
3097.753852006928
 20
887.9450184306646
 30
0.0
 40
1.0
100
AcDbArc
 50
180.0
 51
270.0
  0
ARC
  5
19F
330
1F
100
AcDbEntity
  8
0
  6
Continuous
 62
     7
100
AcDbCircle
 10
3108.168165228119
 20
861.9450279262675
 30
0.0
 40
3.000006754349698
100
AcDbArc
 50
182.0000370175289
 51
270.0000370175579
  0
ARC
  5
1A0
330
1F
100
AcDbEntity
  8
0
  6
Continuous
 62
     2
100
AcDbCircle
 10
3107.634080879187
 20
1032.785989520138
 30
0.0
 40
7.600000000000136
100
AcDbArc
 50
90.0
 51
180.0
  0
ARC
  5
1A1
330
1F
100
AcDbEntity
  8
0
  6
Continuous
 62
     7
100
AcDbCircle
 10
3107.634080879187
 20
1032.785989520138
 30
0.0
 40
8.600000000000136
100
AcDbArc
 50
90.0
 51
180.0
  0
ARC
  5
1A2
330
1F
100
AcDbEntity
  8
0
  6
Continuous
 62
     2
100
AcDbCircle
 10
3107.735852006928
 20
1032.984218393908
 30
0.0
 40
10.0
100
AcDbArc
 50
90.0
 51
180.0
  0
ARC
  5
1A3
330
1F
100
AcDbEntity
  8
0
  6
Continuous
 62
     2
100
AcDbCircle
 10
3218.018480879191
 20
1032.785989520138
 30
0.0
 40
7.599999999999909
100
AcDbArc
 50
0.0
 51
90.0
  0
ARC
  5
1A4
330
1F
100
AcDbEntity
  8
0
  6
Continuous
 62
     7
100
AcDbCircle
 10
3218.018480879191
 20
1032.785989520138
 30
0.0
 40
8.599999999999909
100
AcDbArc
 50
0.0
 51
90.0
  0
ARC
  5
1A5
330
1F
100
AcDbEntity
  8
0
  6
Continuous
 62
     7
100
AcDbCircle
 10
3239.068480878669
 20
1029.984218393908
 30
0.0
 40
7.999999999999886
100
AcDbArc
 50
270.0
 51
0.0
  0
ARC
  5
1A6
330
1F
100
AcDbEntity
  8
0
  6
Continuous
 62
     2
100
AcDbCircle
 10
3239.068480878669
 20
1035.984218393908
 30
0.0
 40
7.0
100
AcDbArc
 50
0.0
 51
90.0
  0
ARC
  5
1A7
330
1F
100
AcDbEntity
  8
0
  6
Continuous
 62
     2
100
AcDbCircle
 10
3239.068480878669
 20
1029.984218393908
 30
0.0
 40
6.999999999999886
100
AcDbArc
 50
270.0
 51
0.0
  0
ARC
  5
1A8
330
1F
100
AcDbEntity
  8
0
  6
Continuous
 62
     7
100
AcDbCircle
 10
3239.068480878669
 20
1035.984218393908
 30
0.0
 40
8.0
100
AcDbArc
 50
0.0
 51
90.0
  0
ARC
  5
1A9
330
1F
100
AcDbEntity
  8
0
  6
Continuous
 62
     7
100
AcDbCircle
 10
3090.735852006928
 20
1011.785989520136
 30
0.0
 40
6.0
100
AcDbArc
 50
270.0
 51
0.0
  0
ARC
  5
1AA
330
1F
100
AcDbEntity
  8
0
  6
Continuous
 62
     2
100
AcDbCircle
 10
3090.735852006928
 20
1011.785989520136
 30
0.0
 40
7.0
100
AcDbArc
 50
270.0
 51
0.0
  0
ARC
  5
1AB
330
1F
100
AcDbEntity
  8
0
  6
Continuous
 62
     7
100
AcDbCircle
 10
3086.585852006927
 20
991.7859895201358
 30
0.0
 40
8.0
100
AcDbArc
 50
180.0
 51
270.0
  0
ARC
  5
1AC
330
1F
100
AcDbEntity
  8
0
  6
Continuous
 62
     7
100
AcDbCircle
 10
3086.585852006927
 20
997.7859895201358
 30
0.0
 40
8.000000000000227
100
AcDbArc
 50
90.0
 51
180.0
  0
ARC
  5
1AD
330
1F
100
AcDbEntity
  8
0
  6
Continuous
 62
     2
100
AcDbCircle
 10
3086.585852006927
 20
991.7859895201358
 30
0.0
 40
7.0
100
AcDbArc
 50
180.0
 51
270.0
  0
ARC
  5
1AE
330
1F
100
AcDbEntity
  8
0
  6
Continuous
 62
     2
100
AcDbCircle
 10
3086.585852006927
 20
997.7859895201358
 30
0.0
 40
7.000000000000227
100
AcDbArc
 50
90.0
 51
180.0
  0
ARC
  5
1AF
330
1F
100
AcDbEntity
  8
0
  6
Continuous
 62
     7
100
AcDbCircle
 10
3111.103098616853
 20
997.8550682122324
 30
0.0
 40
6.496040375624943
100
AcDbArc
 50
180.0
 51
270.0
  0
ARC
  5
1B0
330
1F
100
AcDbEntity
  8
0
  6
Continuous
 62
     2
100
AcDbCircle
 10
3107.634080879187
 20
994.9859895203697
 30
0.0
 40
7.600000000000819
100
AcDbArc
 50
180.0
 51
270.0
  0
ARC
  5
1B1
330
1F
100
AcDbEntity
  8
0
  6
Continuous
 62
     7
100
AcDbCircle
 10
3107.634080879187
 20
994.9859895203697
 30
0.0
 40
8.600000000000819
100
AcDbArc
 50
180.0
 51
270.0
  0
ARC
  5
1B2
330
1F
100
AcDbEntity
  8
0
  6
Continuous
 62
     7
100
AcDbCircle
 10
3217.918480879191
 20
994.7859895201358
 30
0.0
 40
11.0
100
AcDbArc
 50
270.0000000000047
 51
0.0
  0
ARC
  5
1B3
330
1F
100
AcDbEntity
  8
0
  6
Continuous
 62
     7
100
AcDbCircle
 10
3214.549463141525
 20
1029.91697178247
 30
0.0
 40
6.496040375624034
100
AcDbArc
 50
0.0
 51
90.0
  0
ARC
  5
1B4
330
1F
100
AcDbEntity
  8
0
  6
Continuous
 62
     7
100
AcDbCircle
 10
3111.103098616853
 20
1029.91697178247
 30
0.0
 40
6.496040375624034
100
AcDbArc
 50
90.0
 51
180.0
  0
ARC
  5
1B5
330
1F
100
AcDbEntity
  8
0
  6
Continuous
 62
     7
100
AcDbCircle
 10
3234.918480879191
 20
1015.984218393908
 30
0.0
 40
6.0
100
AcDbArc
 50
90.0
 51
180.0
  0
ARC
  5
1B6
330
1F
100
AcDbEntity
  8
0
  6
Continuous
 62
     2
100
AcDbCircle
 10
3234.918480879191
 20
1015.984218393908
 30
0.0
 40
7.0
100
AcDbArc
 50
90.0
 51
180.0
  0
ARC
  5
1B7
330
1F
100
AcDbEntity
  8
0
  6
Continuous
 62
     2
100
AcDbCircle
 10
3218.018480879191
 20
994.9859895203698
 30
0.0
 40
7.600000000000364
100
AcDbArc
 50
269.9999999999931
 51
0.00000000000171
  0
ARC
  5
1B8
330
1F
100
AcDbEntity
  8
0
  6
Continuous
 62
     7
100
AcDbCircle
 10
3218.018480879191
 20
994.9859895203698
 30
0.0
 40
8.600000000000364
100
AcDbArc
 50
269.9999999999939
 51
0.00000000000151
  0
ARC
  5
1B9
330
1F
100
AcDbEntity
  8
0
  6
Continuous
 62
     2
100
AcDbCircle
 10
3217.918480879191
 20
994.7859895201358
 30
0.0
 40
10.0
100
AcDbArc
 50
270.0000000000052
 51
0.0
  0
ARC
  5
1BA
330
1F
100
AcDbEntity
  8
0
  6
Continuous
 62
     7
100
AcDbCircle
 10
3214.549463141525
 20
997.8550682122326
 30
0.0
 40
6.496040375624261
100
AcDbArc
 50
270.0
 51
0.0
  0
ARC
  5
1BB
330
1F
100
AcDbEntity
  8
0
  6
Continuous
 62
     7
100
AcDbCircle
 10
3107.735852006928
 20
1032.984218393908
 30
0.0
 40
11.0
100
AcDbArc
 50
90.0
 51
180.0
  0
ARC
  5
1BC
330
1F
100
AcDbEntity
  8
0
  6
Continuous
 62
     7
100
AcDbCircle
 10
3268.199298947226
 20
1017.307192485285
 30
0.0
 40
82.00000000000054
100
AcDbArc
 50
8.80819954011421
 51
11.37212603991121
  0
ARC
  5
1BD
330
1F
100
AcDbEntity
  8
0
  6
Continuous
 62
     7
100
AcDbCircle
 10
3268.199298947226
 20
1010.464786554991
 30
0.0
 40
82.00000000000016
100
AcDbArc
 50
348.6274855857251
 51
351.1918493866025
  0
ARC
  5
1BE
330
1F
100
AcDbEntity
  8
0
  6
Continuous
 62
     7
100
AcDbCircle
 10
3345.640335275683
 20
994.8476260625167
 30
0.0
 40
2.999937914755678
100
AcDbArc
 50
272.000095174978
 51
348.5984575325386
  0
ARC
  5
1BF
330
1F
100
AcDbEntity
  8
0
  6
Continuous
 62
     7
100
AcDbCircle
 10
3345.640318284048
 20
1032.924408925997
 30
0.0
 40
2.999943510898769
100
AcDbArc
 50
11.4015695710633
 51
87.99989026891897
  0
ARC
  5
1C0
330
1F
100
AcDbEntity
  8
0
  6
Continuous
 62
     2
100
AcDbCircle
 10
3268.300786447569
 20
1017.30673000959
 30
0.0
 40
79.00320631902761
100
AcDbArc
 50
359.9851540147895
 51
8.80842533756388
  0
ARC
  5
1C1
330
1F
100
AcDbEntity
  8
0
  6
Continuous
 62
     7
100
AcDbCircle
 10
3268.199298947226
 20
1010.464786554991
 30
0.0
 40
81.99999999999945
100
AcDbArc
 50
351.1918493866025
 51
0.014815127229
  0
ARC
  5
1C2
330
1F
100
AcDbEntity
  8
0
  6
Continuous
 62
     7
100
AcDbCircle
 10
3321.199298947226
 20
984.7859895201378
 30
0.0
 40
1.000000000000114
100
AcDbArc
 50
270.0
 51
0.0
  0
ARC
  5
1C3
330
1F
100
AcDbEntity
  8
0
  6
Continuous
 62
     7
100
AcDbCircle
 10
3321.199298947226
 20
1004.785989520138
 30
0.0
 40
1.0
100
AcDbArc
 50
0.0
 51
90.0
  0
ARC
  5
1C4
330
1F
100
AcDbEntity
  8
0
  6
Continuous
 62
     7
100
AcDbCircle
 10
3330.699298947226
 20
1040.38598952014
 30
0.0
 40
1.0
100
AcDbArc
 50
0.0
 51
90.0
  0
ARC
  5
1C5
330
1F
100
AcDbEntity
  8
0
  6
Continuous
 62
     7
100
AcDbCircle
 10
3321.199298947226
 20
1042.98421839391
 30
0.0
 40
1.0
100
AcDbArc
 50
0.0
 51
90.0
  0
ARC
  5
1C6
330
1F
100
AcDbEntity
  8
0
  6
Continuous
 62
     7
100
AcDbCircle
 10
3330.699298947226
 20
987.3859895203716
 30
0.0
 40
1.0
100
AcDbArc
 50
270.0
 51
0.0
  0
ARC
  5
1C7
330
1F
100
AcDbEntity
  8
0
  6
Continuous
 62
     7
100
AcDbCircle
 10
3268.199298947226
 20
1017.307192485286
 30
0.0
 40
81.99999999999974
100
AcDbArc
 50
359.985184872771
 51
8.80819954011351
  0
ARC
  5
1C8
330
1F
100
AcDbEntity
  8
0
  6
Continuous
 62
     2
100
AcDbCircle
 10
3126.749939289244
 20
1024.981377444013
 30
0.0
 40
0.1663461499999273
100
AcDbArc
 50
299.7524870760965
 51
60.24751292405896
  0
ARC
  5
1C9
330
1F
100
AcDbEntity
  8
0
  6
Continuous
 62
     2
100
AcDbCircle
 10
3118.266285639245
 20
1020.323685244014
 30
0.0
 40
0.3326923000008823
100
AcDbArc
 50
240.2480640655018
 51
299.7524870756011
  0
ARC
  5
1CA
330
1F
100
AcDbEntity
  8
0
  6
Continuous
 62
     2
100
AcDbCircle
 10
3120.927824039244
 20
1022.803052530276
 30
0.0
 40
0.3326922999999624
100
AcDbArc
 50
180.0
 51
299.9816393683953
  0
ARC
  5
1CB
330
1F
100
AcDbEntity
  8
0
  6
Continuous
 62
     2
100
AcDbCircle
 10
3122.258593239252
 20
1023.563670210422
 30
0.0
 40
0.3326923000002781
100
AcDbArc
 50
299.9816393697652
 51
119.9816393697078
  0
ARC
  5
1CC
330
1F
100
AcDbEntity
  8
0
  6
Continuous
 62
     2
100
AcDbCircle
 10
3119.597054839245
 20
1022.042378632525
 30
0.0
 40
0.3326922999999624
100
AcDbArc
 50
180.0
 51
0.0
  0
ARC
  5
1CD
330
1F
100
AcDbEntity
  8
0
  6
Continuous
 62
     2
100
AcDbCircle
 10
3122.258593239244
 20
1024.981377444013
 30
0.0
 40
0.3326922999990529
100
AcDbArc
 50
270.0
 51
90.0
  0
ARC
  5
1CE
330
1F
100
AcDbEntity
  8
0
  6
Continuous
 62
     2
100
AcDbCircle
 10
3119.597054839245
 20
1027.920376255501
 30
0.0
 40
0.3326922999999624
100
AcDbArc
 50
0.0
 51
150.0000000000633
  0
ARC
  5
1CF
330
1F
100
AcDbEntity
  8
0
  6
Continuous
 62
     2
100
AcDbCircle
 10
3118.266285639245
 20
1025.282724087952
 30
0.0
 40
0.1663461500003786
100
AcDbArc
 50
209.999999999514
 51
330.0000000004077
  0
ARC
  5
1D0
330
1F
100
AcDbEntity
  8
0
  6
Continuous
 62
     2
100
AcDbCircle
 10
3122.258593239233
 20
1026.399028460009
 30
0.0
 40
0.3326923000002023
100
AcDbArc
 50
240.0183606333919
 51
60.01836063329403
  0
ARC
  5
1D1
330
1F
100
AcDbEntity
  8
0
  6
Continuous
 62
     2
100
AcDbCircle
 10
3120.927824039244
 20
1027.159702357751
 30
0.0
 40
0.3326923000003387
100
AcDbArc
 50
60.01836063123546
 51
180.0
  0
ARC
  5
1D2
330
1F
100
AcDbEntity
  8
0
  6
Continuous
 62
     2
100
AcDbCircle
 10
3116.935516439245
 20
1027.920376255501
 30
0.0
 40
0.3326923000005988
100
AcDbArc
 50
29.99999999993672
 51
180.0
  0
ARC
  5
1D3
330
1F
100
AcDbEntity
  8
0
  6
Continuous
 62
     2
100
AcDbCircle
 10
3114.273978039244
 20
1026.39908467761
 30
0.0
 40
0.3326923000008719
100
AcDbArc
 50
0.0
 51
180.0
  0
ARC
  5
1D4
330
1F
100
AcDbEntity
  8
0
  6
Continuous
 62
     2
100
AcDbCircle
 10
3115.604747239245
 20
1027.166836139148
 30
0.0
 40
0.3326922999999624
100
AcDbArc
 50
0.0
 51
180.0
  0
ARC
  5
1D5
330
1F
100
AcDbEntity
  8
0
  6
Continuous
 62
     2
100
AcDbCircle
 10
3109.782816766988
 20
1024.981377444013
 30
0.0
 40
0.1665309277437376
100
AcDbArc
 50
119.7519359346296
 51
240.2480640650599
  0
ARC
  5
1D6
330
1F
100
AcDbEntity
  8
0
  6
Continuous
 62
     2
100
AcDbCircle
 10
3114.273978039244
 20
1023.563670210417
 30
0.0
 40
0.3326922999990529
100
AcDbArc
 50
180.0
 51
0.0
  0
ARC
  5
1D7
330
1F
100
AcDbEntity
  8
0
  6
Continuous
 62
     2
100
AcDbCircle
 10
3115.937439539245
 20
1022.996048597593
 30
0.0
 40
0.6653845999999248
100
AcDbArc
 50
179.9999999999119
 51
240.0183606307789
  0
ARC
  5
1D8
330
1F
100
AcDbEntity
  8
0
  6
Continuous
 62
     2
100
AcDbCircle
 10
3116.935516439245
 20
1023.563670210417
 30
0.0
 40
0.3326923000008719
100
AcDbArc
 50
180.0
 51
0.0
  0
ARC
  5
1D9
330
1F
100
AcDbEntity
  8
0
  6
Continuous
 62
     2
100
AcDbCircle
 10
3117.933593339259
 20
1021.471860616287
 30
0.0
 40
0.3326922999992706
100
AcDbArc
 50
240.0183606281456
 51
60.01836062880706
  0
ARC
  5
1DA
330
1F
100
AcDbEntity
  8
0
  6
Continuous
 62
     2
100
AcDbCircle
 10
3118.266285639245
 20
1029.639069644014
 30
0.0
 40
0.3326922999987262
100
AcDbArc
 50
60.24751292424345
 51
119.7519359346537
  0
LWPOLYLINE
  5
1DB
330
1F
100
AcDbEntity
  8
Skizziergeometrie_ISO_
  6
Continuous
 62
     7
100
AcDbPolyline
 90
        2
 70
     0
 43
0.5
 10
3443.260623812631
 20
754.2342104757415
 42
0.57735026918942
 10
3443.83797408182
 20
754.2342104757415
 42
0.57735026918942
  0
LWPOLYLINE
  5
1DC
330
1F
100
AcDbEntity
  8
Skizziergeometrie_ISO_
  6
Continuous
 62
     7
100
AcDbPolyline
 90
        2
 70
     0
 43
0.5
 10
3437.549300964832
 20
749.2325451711837
 42
0.26803505952201
 10
3438.216339896796
 20
748.0776272416643
 42
0.26803505952201
  0
LWPOLYLINE
  5
1DD
330
1F
100
AcDbEntity
  8
Skizziergeometrie_ISO_
  6
Continuous
 62
     7
100
AcDbPolyline
 90
        2
 70
     0
 43
0.5
 10
3426.716428396944
 20
753.9812300241423
 42
0.577563924599
 10
3426.716428396944
 20
753.4037729667771
 42
0.577563924599
  0
LWPOLYLINE
  5
1DE
330
1F
100
AcDbEntity
  8
Skizziergeometrie_ISO_
  6
Continuous
 62
     7
100
AcDbPolyline
 90
        2
 70
     0
 43
0.5
 10
3460.382169497508
 20
753.4037729667771
 42
0.57756392459821
 10
3460.382169497508
 20
753.9812300241423
 42
0.57756392459821
  0
LWPOLYLINE
  5
1DF
102
{ACAD_REACTORS
330
269
102
}
330
1F
100
AcDbEntity
  8
Skizziergeometrie_ISO_
  6
Continuous
 62
     7
100
AcDbPolyline
 90
        2
 70
     0
 43
0.5
 10
3449.215778565279
 20
759.1566351007717
 42
0.57724345630707
 10
3448.215963596286
 20
758.5791780434059
 42
0.57724345630707
  0
LWPOLYLINE
  5
1E0
102
{ACAD_REACTORS
330
269
102
}
330
1F
100
AcDbEntity
  8
Skizziergeometrie_ISO_
  6
Continuous
 62
     7
100
AcDbPolyline
 90
        2
 70
     0
 43
0.5
 10
3448.215963596286
 20
748.8058249475135
 42
0.57724345630707
 10
3449.215778565279
 20
748.2283678901478
 42
0.57724345630707
  0
LWPOLYLINE
  5
1E1
330
1F
100
AcDbEntity
  8
Skizziergeometrie_ISO_
  6
Continuous
 62
     7
100
AcDbPolyline
 90
        2
 70
     0
 43
0.5
 10
3441.204843806992
 20
760.4615836412967
 42
0.76732698797919
 10
3440.215976439743
 20
760.1966174288215
 42
0.76732698797919
  0
LWPOLYLINE
  5
1E2
330
1F
100
AcDbEntity
  8
Skizziergeometrie_ISO_
  6
Continuous
 62
     7
100
AcDbPolyline
 90
        2
 70
     0
 43
0.5
 10
3440.215976439745
 20
750.3859627135865
 42
1.0
 10
3441.549309773077
 20
750.3859627135865
 42
1.0
  0
LWPOLYLINE
  5
1E3
330
1F
100
AcDbEntity
  8
Skizziergeometrie_ISO_
  6
Continuous
 62
     7
100
AcDbPolyline
 90
        2
 70
     0
 43
0.5
 10
3445.549288121374
 20
747.2673583273709
 42
1.0
 10
3446.882621454708
 20
747.2673583273709
 42
1.0
  0
LWPOLYLINE
  5
1E4
330
1F
100
AcDbEntity
  8
Skizziergeometrie_ISO_
  6
Continuous
 62
     7
100
AcDbPolyline
 90
        2
 70
     0
 43
0.5
 10
3446.882621454708
 20
760.1966174288214
 42
0.76732698797895
 10
3445.89375408746
 20
760.4615836412967
 42
0.76732698797895
  0
LWPOLYLINE
  5
1E5
330
1F
100
AcDbEntity
  8
Skizziergeometrie_ISO_
  6
Continuous
 62
     7
100
AcDbPolyline
 90
        2
 70
     0
 43
0.5
 10
3438.882634298166
 20
758.5791780434059
 42
1.0
 10
3437.549300964832
 20
758.5791780434059
 42
1.0
  0
LWPOLYLINE
  5
1E6
330
1F
100
AcDbEntity
  8
Skizziergeometrie_ISO_
  6
Continuous
 62
     7
100
AcDbPolyline
 90
        2
 70
     0
 43
0.5
 10
3442.55161030614
 20
745.576509697812
 42
1.00000000000089
 10
3443.217906910791
 20
746.7314238125435
 42
1.00000000000089
  0
LWPOLYLINE
  5
1E7
330
1F
100
AcDbEntity
  8
Skizziergeometrie_ISO_
  6
Continuous
 62
     7
100
AcDbPolyline
 90
        2
 70
     0
 43
0.5
 10
3436.215965613892
 20
756.9990402773329
 42
1.0
 10
3434.882632280559
 20
756.9990402773329
 42
1.0
  0
LWPOLYLINE
  5
1E8
330
1F
100
AcDbEntity
  8
Skizziergeometrie_ISO_
  6
Continuous
 62
     7
100
AcDbPolyline
 90
        2
 70
     0
 43
0.5
 10
3434.882632280559
 20
750.3859627135865
 42
1.0
 10
3436.215965613892
 20
750.3859627135865
 42
1.0
  0
LWPOLYLINE
  5
1E9
102
{ACAD_REACTORS
330
269
102
}
330
1F
100
AcDbEntity
  8
Skizziergeometrie_ISO_
  6
Continuous
 62
     7
100
AcDbPolyline
 90
        2
 70
     0
 43
0.5
 10
3451.28838742182
 20
756.4215832199671
 42
0.9999999999997
 10
3451.954684026472
 20
757.5764973346987
 42
0.9999999999997
  0
LWPOLYLINE
  5
1EA
102
{ACAD_REACTORS
330
269
102
}
330
1F
100
AcDbEntity
  8
Skizziergeometrie_ISO_
  6
Continuous
 62
     7
100
AcDbPolyline
 90
        2
 70
     0
 43
0.5
 10
3451.621535724146
 20
753.0258348287929
 42
1.0
 10
3451.621535724146
 20
754.3591681621265
 42
1.0
  0
LWPOLYLINE
  5
1EB
102
{ACAD_REACTORS
330
269
102
}
330
1F
100
AcDbEntity
  8
Skizziergeometrie_ISO_
  6
Continuous
 62
     7
100
AcDbPolyline
 90
        2
 70
     0
 43
0.5
 10
3451.954684026472
 20
749.8085056562207
 42
0.9999999999997
 10
3451.28838742182
 20
750.9634197709523
 42
0.9999999999997
  0
ARC
  5
1EC
330
1F
100
AcDbEntity
  8
0
  6
Continuous
 62
     7
100
AcDbCircle
 10
3448.882630262954
 20
748.8058249475135
 30
0.0
 40
0.6666666666678793
100
AcDbArc
 50
180.0
 51
299.9816393687321
  0
ARC
  5
1ED
330
1F
100
AcDbEntity
  8
0
  6
Continuous
 62
     7
100
AcDbCircle
 10
3448.882630262954
 20
758.5791780434059
 30
0.0
 40
0.6666666666659464
100
AcDbArc
 50
60.01836063126785
 51
180.0
  0
ARC
  5
1EE
330
1F
100
AcDbEntity
  8
0
  6
Continuous
 62
     7
100
AcDbCircle
 10
3451.621535724146
 20
756.9990402773329
 30
0.0
 40
0.666666666666401
100
AcDbArc
 50
240.0183606312001
 51
60.01835942367545
  0
ARC
  5
1EF
330
1F
100
AcDbEntity
  8
0
  6
Continuous
 62
     7
100
AcDbCircle
 10
3451.621535724146
 20
753.6925014954597
 30
0.0
 40
0.6666666666668561
100
AcDbArc
 50
270.0
 51
90.0
  0
ARC
  5
1F0
330
1F
100
AcDbEntity
  8
0
  6
Continuous
 62
     7
100
AcDbCircle
 10
3451.621535724146
 20
750.3859627135865
 30
0.0
 40
0.6666666666666282
100
AcDbArc
 50
299.9816393688337
 51
119.9816393687998
  0
ARC
  5
1F1
102
{ACAD_REACTORS
330
268
102
}
330
1F
100
AcDbEntity
  8
0
  6
Continuous
 62
     7
100
AcDbCircle
 10
3440.745908864695
 20
760.1966174288215
 30
0.0
 40
0.5299324249509441
100
AcDbArc
 50
29.9999999999662
 51
180.0
  0
ARC
  5
1F2
102
{ACAD_REACTORS
330
268
102
}
330
1F
100
AcDbEntity
  8
0
  6
Continuous
 62
     7
100
AcDbCircle
 10
3440.882643106411
 20
750.3859627135865
 30
0.0
 40
0.6666666666656056
100
AcDbArc
 50
180.0
 51
0.0
  0
ARC
  5
1F3
102
{ACAD_REACTORS
330
268
102
}
330
1F
100
AcDbEntity
  8
0
  6
Continuous
 62
     7
100
AcDbCircle
 10
3443.549298947226
 20
754.4008771424081
 30
0.0
 40
0.333333333333473
100
AcDbArc
 50
209.9999999999786
 51
329.9999999999432
  0
ARC
  5
1F4
102
{ACAD_REACTORS
330
268
102
}
330
1F
100
AcDbEntity
  8
0
  6
Continuous
 62
     7
100
AcDbCircle
 10
3446.21595478804
 20
747.2673583273709
 30
0.0
 40
0.6666666666660603
100
AcDbArc
 50
180.0
 51
0.0
  0
ARC
  5
1F5
102
{ACAD_REACTORS
330
268
102
}
330
1F
100
AcDbEntity
  8
0
  6
Continuous
 62
     7
100
AcDbCircle
 10
3446.352689029756
 20
760.1966174288214
 30
0.0
 40
0.5299324249517667
100
AcDbArc
 50
0.0
 51
149.9999999999986
  0
ARC
  5
1F6
102
{ACAD_REACTORS
330
267
102
}
330
1F
100
AcDbEntity
  8
0
  6
Continuous
 62
     7
100
AcDbCircle
 10
3438.215967631498
 20
758.5791780434059
 30
0.0
 40
0.6666666666678793
100
AcDbArc
 50
0.0
 51
180.0
  0
ARC
  5
1F7
102
{ACAD_REACTORS
330
267
102
}
330
1F
100
AcDbEntity
  8
0
  6
Continuous
 62
     7
100
AcDbCircle
 10
3438.882638702288
 20
749.2325451711837
 30
0.0
 40
1.333337737456077
100
AcDbArc
 50
180.0
 51
240.0183606311383
  0
ARC
  5
1F8
102
{ACAD_REACTORS
330
267
102
}
330
1F
100
AcDbEntity
  8
0
  6
Continuous
 62
     7
100
AcDbCircle
 10
3442.884758608466
 20
746.1539667551777
 30
0.0
 40
0.6666666666666282
100
AcDbArc
 50
240.0183606311663
 51
60.01836063126785
  0
ARC
  5
1F9
102
{ACAD_REACTORS
330
266
102
}
330
1F
100
AcDbEntity
  8
0
  6
Continuous
 62
     7
100
AcDbCircle
 10
3435.549298947226
 20
750.3859627135865
 30
0.0
 40
0.6666666666669698
100
AcDbArc
 50
180.0
 51
0.0
  0
ARC
  5
1FA
102
{ACAD_REACTORS
330
266
102
}
330
1F
100
AcDbEntity
  8
0
  6
Continuous
 62
     7
100
AcDbCircle
 10
3435.549298947226
 20
756.9990402773329
 30
0.0
 40
0.6666666666660603
100
AcDbArc
 50
0.0
 51
180.0
  0
CIRCLE
  5
1FB
330
1F
100
AcDbEntity
  8
0
  6
Continuous
 62
     7
100
AcDbCircle
 10
3236.518480879374
 20
1033.385989520228
 30
0.0
 40
3.230998166343852
  0
CIRCLE
  5
1FC
330
1F
100
AcDbEntity
  8
0
  6
Continuous
 62
     7
100
AcDbCircle
 10
3236.518480879374
 20
1033.385989520228
 30
0.0
 40
3.257184087912719
  0
CIRCLE
  5
1FD
330
1F
100
AcDbEntity
  8
0
  6
Continuous
 62
     7
100
AcDbCircle
 10
3089.134080879376
 20
994.3859895199313
 30
0.0
 40
3.230998166345216
  0
CIRCLE
  5
1FE
330
1F
100
AcDbEntity
  8
0
  6
Continuous
 62
     7
100
AcDbCircle
 10
3089.134080879376
 20
994.3859895199313
 30
0.0
 40
3.257184087913174
  0
SPLINE
  5
1FF
330
1F
100
AcDbEntity
  8
0
  6
Continuous
 62
     2
100
AcDbSpline
210
0.0
220
0.0
230
1.0
 70
     8
 71
     3
 72
    27
 73
    23
 74
    21
 42
0.0000000001
 43
0.0000000001
 44
0.00000001
 40
0.0
 40
0.0
 40
0.0
 40
0.0
 40
0.0051800384651654
 40
0.0118388707615308
 40
0.0268973166496084
 40
0.0484013885649375
 40
0.0874648308195877
 40
0.1387628310674596
 40
0.2025616261974189
 40
0.2956907945542755
 40
0.4070923490698235
 40
0.535939875312446
 40
0.6814067734209
 40
0.8426663503133142
 40
1.017885800347696
 40
1.205478487236181
 40
1.403328221760184
 40
1.609318784584791
 40
1.821333938822321
 40
2.181925864862565
 40
2.543262918741012
 40
2.896818626924408
 40
2.896818626924408
 40
2.896818626924408
 40
2.896818626924408
 10
3349.232240839408
 20
997.9084205083128
 30
0.0
 10
3349.230636554417
 20
997.9090658755024
 30
0.0
 10
3349.226969994257
 20
997.9105408488649
 30
0.0
 10
3349.218197686294
 20
997.9125038969954
 30
0.0
 10
3349.204124900183
 20
997.915523271835
 30
0.0
 10
3349.17936327642
 20
997.920297772406
 30
0.0
 10
3349.142695521425
 20
997.9270500014311
 30
0.0
 10
3349.092091553229
 20
997.9359978835273
 30
0.0
 10
3349.023694012651
 20
997.9477982358749
 30
0.0
 10
3348.935498392736
 20
997.9626879337167
 30
0.0
 10
3348.825875365143
 20
997.9809030068266
 30
0.0
 10
3348.699000999551
 20
998.001728009261
 30
0.0
 10
3348.555690133009
 20
998.0250202601352
 30
0.0
 10
3348.397088335461
 20
998.0505833250597
 30
0.0
 10
3348.224591967541
 20
998.0781842168537
 30
0.0
 10
3348.040024327785
 20
998.1075381705941
 30
0.0
 10
3347.845301688365
 20
998.138343811416
 30
0.0
 10
3347.64251469873
 20
998.170272431386
 30
0.0
 10
3347.386112972027
 20
998.2104633290512
 30
0.0
 10
3347.07851142803
 20
998.2584025505685
 30
0.0
 10
3346.724245057422
 20
998.3133022574093
 30
0.0
 10
3346.488718571042
 20
998.3495378927042
 30
0.0
 10
3346.372237137592
 20
998.367458504547
 30
0.0
 11
3349.232240839408
 21
997.9084205083128
 31
0.0
 11
3349.227390733585
 21
997.9102396487717
 31
0.0
 11
3349.220938249466
 21
997.9118844880477
 31
0.0
 11
3349.206212269461
 21
997.9150312809294
 31
0.0
 11
3349.185109841644
 21
997.9191680247202
 31
0.0
 11
3349.146697856625
 21
997.9262723844853
 31
0.0
 11
3349.096189937759
 21
997.9352409385101
 31
0.0
 11
3349.033323023303
 21
997.9461054369702
 31
0.0
 11
3348.941498264362
 21
997.9616378432281
 31
0.0
 11
3348.831606489036
 21
997.979916356963
 31
0.0
 11
3348.704462559411
 21
998.0007995123328
 31
0.0
 11
3348.560881337566
 21
998.0241458434955
 31
0.0
 11
3348.401677685582
 21
998.0498138846083
 31
0.0
 11
3348.228660386767
 21
998.0775063020048
 31
0.0
 11
3348.043397005348
 21
998.1069765527532
 31
0.0
 11
3347.8479782611
 21
998.1378963174317
 31
0.0
 11
3347.6444948738
 21
998.1699372766178
 31
0.0
 11
3347.435037563225
 21
998.20277111089
 31
0.0
 11
3347.078748907223
 21
998.2583132636206
 31
0.0
 11
3346.721671734919
 21
998.3136337799325
 31
0.0
 11
3346.372237137592
 21
998.367458504547
 31
0.0
  0
SPLINE
  5
200
330
1F
100
AcDbEntity
  8
0
  6
Continuous
 62
     2
100
AcDbSpline
210
0.0
220
0.0
230
1.0
 70
     8
 71
     3
 72
    34
 73
    30
 74
    28
 42
0.0000000001
 43
0.0000000001
 44
0.00000001
 40
0.0
 40
0.0
 40
0.0
 40
0.0
 40
0.0224153007404411
 40
0.0842044037682011
 40
0.1869385984072723
 40
0.3315608622296444
 40
0.5189369164610902
 40
0.732540834538993
 40
0.9538120549897927
 40
1.174146531976873
 40
1.38493578486926
 40
1.577568710754357
 40
1.743432557440543
 40
1.873913484932183
 40
1.960396912520085
 40
2.146208000114746
 40
2.373413950310267
 40
2.640677163210518
 40
2.946660994544609
 40
3.290029826092244
 40
3.669449136304863
 40
4.083585574405082
 40
4.300416215905957
 40
4.567501600030321
 40
4.881831691236966
 40
5.240397454952149
 40
5.640190990840953
 40
6.078205676690467
 40
6.551436330828836
 40
6.551436330828836
 40
6.551436330828836
 40
6.551436330828836
 10
3345.745036579258
 20
991.8495158028
 30
0.0
 10
3345.748582121425
 20
991.8561279282267
 30
0.0
 10
3345.761901160399
 20
991.8809667686967
 30
0.0
 10
3345.770040048251
 20
991.9438874032035
 30
0.0
 10
3345.789596023524
 20
992.0444743847963
 30
0.0
 10
3345.80937935058
 20
992.188345779928
 30
0.0
 10
3345.833788848149
 20
992.3684471265748
 30
0.0
 10
3345.859238469609
 20
992.5743410319408
 30
0.0
 10
3345.884881611376
 20
992.7912221936368
 30
0.0
 10
3345.90935857228
 20
993.0073092575697
 30
0.0
 10
3345.93203322994
 20
993.2139875358764
 30
0.0
 10
3345.952189740431
 20
993.4026764055944
 30
0.0
 10
3345.969136559625
 20
993.5647856398572
 30
0.0
 10
3345.982176459484
 20
993.6917271088486
 30
0.0
 10
3345.995722903085
 20
993.8253004459283
 30
0.0
 10
3346.012322911445
 20
993.9909711226021
 30
0.0
 10
3346.034454081954
 20
994.2166488404304
 30
0.0
 10
3346.059896749332
 20
994.482250924338
 30
0.0
 10
3346.088286146459
 20
994.7864681062756
 30
0.0
 10
3346.119265261605
 20
995.1279903383659
 30
0.0
 10
3346.152476153292
 20
995.5055076846908
 30
0.0
 10
3346.18103235452
 20
995.8410908657681
 30
0.0
 10
3346.205779938718
 20
996.1394170646024
 30
0.0
 10
3346.227332941315
 20
996.4046249175047
 30
0.0
 10
3346.252092973559
 20
996.7169723802343
 30
0.0
 10
3346.279566212214
 20
997.0734788562198
 30
0.0
 10
3346.309226369442
 20
997.4711659755758
 30
0.0
 10
3346.340678606736
 20
997.9070464841146
 30
0.0
 10
3346.361450049723
 20
998.2100841025879
 30
0.0
 10
3346.372237137592
 20
998.367458504547
 30
0.0
 11
3345.745036579258
 21
991.8495158028
 31
0.0
 11
3345.754989167504
 21
991.8696004161765
 31
0.0
 11
3345.768715017843
 21
991.9298457005186
 31
0.0
 11
3345.786188843667
 21
992.0310829474151
 31
0.0
 11
3345.807385358371
 21
992.1741434484541
 31
0.0
 11
3345.832279275351
 21
992.359858495224
 31
0.0
 11
3345.858740019225
 21
992.57181712999
 31
0.0
 11
3345.884738808827
 21
992.7915556471849
 31
0.0
 11
3345.909585300592
 21
993.0104847078327
 31
0.0
 11
3345.932589150957
 21
993.2200149729576
 31
0.0
 11
3345.953060016354
 21
993.4115571035842
 31
0.0
 11
3345.970307553221
 21
993.576521760737
 31
0.0
 11
3345.98364141799
 21
993.7063196054395
 31
0.0
 11
3345.992371267097
 21
993.7923612987162
 31
0.0
 11
3346.010888645238
 21
993.9772473906212
 31
0.0
 11
3346.033072925115
 21
994.2033677159583
 31
0.0
 11
3346.058564651434
 21
994.469412443136
 31
0.0
 11
3346.087004368901
 21
994.7740717405622
 31
0.0
 11
3346.118032622221
 21
995.1160357766455
 31
0.0
 11
3346.151289956098
 21
995.4939947197936
 31
0.0
 11
3346.186416915238
 21
995.9066387384148
 31
0.0
 11
3346.204341003984
 21
996.1227272715125
 31
0.0
 11
3346.225976402811
 21
996.3889349196567
 31
0.0
 11
3346.250820657134
 21
996.7022816433752
 31
0.0
 11
3346.278371312363
 21
997.0597874031961
 31
0.0
 11
3346.308125913906
 21
997.4584721596459
 31
0.0
 11
3346.339582007179
 21
997.8953558732538
 31
0.0
 11
3346.372237137592
 21
998.367458504547
 31
0.0
  0
SPLINE
  5
201
330
1F
100
AcDbEntity
  8
0
  6
Continuous
 62
     2
100
AcDbSpline
210
0.0
220
0.0
230
1.0
 70
     8
 71
     3
 72
    29
 73
    25
 74
    23
 42
0.0000000001
 43
0.0000000001
 44
0.00000001
 40
0.0
 40
0.0
 40
0.0
 40
0.0
 40
0.2641048122920414
 40
0.5337857256003573
 40
0.8054456113711234
 40
1.075487365652969
 40
1.287503112171316
 40
1.493494270625408
 40
1.69134459550092
 40
1.878937858843147
 40
2.054157862827664
 40
2.189615672103956
 40
2.314202002513245
 40
2.427438431072745
 40
2.528846570403108
 40
2.617948094763003
 40
2.694264790122153
 40
2.758063819075294
 40
2.809362011722435
 40
2.848425604961007
 40
2.869929763559585
 40
2.884988274853177
 40
2.889442497454432
 40
2.896818137381171
 40
2.896818137381171
 40
2.896818137381171
 40
2.896818137381171
 10
3346.372219013696
 20
1029.40458212306
 30
0.0
 10
3346.459231006008
 20
1029.417963599855
 30
0.0
 10
3346.635092093313
 20
1029.445009079408
 30
0.0
 10
3346.90042096455
 20
1029.486034929017
 30
0.0
 10
3347.167679871462
 20
1029.527528995679
 30
0.0
 10
3347.415916428568
 20
1029.566255281963
 30
0.0
 10
3347.642499294857
 20
1029.601771892483
 30
0.0
 10
3347.845286791091
 20
1029.63370110845
 30
0.0
 10
3348.040009969128
 20
1029.66450710508
 30
0.0
 10
3348.224578128591
 20
1029.693861437221
 30
0.0
 10
3348.388582284458
 20
1029.720103666763
 30
0.0
 10
3348.531823697419
 20
1029.743178466045
 30
0.0
 10
3348.654645557898
 20
1029.7630993057
 30
0.0
 10
3348.766241542024
 20
1029.781340582509
 30
0.0
 10
3348.866140152935
 20
1029.797820116366
 30
0.0
 10
3348.953870191452
 20
1029.812454037753
 30
0.0
 10
3349.02920493158
 20
1029.825202766056
 30
0.0
 10
3349.092081646493
 20
1029.836045588198
 30
0.0
 10
3349.142681343806
 20
1029.845007657719
 30
0.0
 10
3349.179359760144
 20
1029.851726688271
 30
0.0
 10
3349.204101664064
 20
1029.85656396258
 30
0.0
 10
3349.217491867974
 20
1029.859318059913
 30
0.0
 10
3349.226209185109
 20
1029.861432019801
 30
0.0
 10
3349.2299178513
 20
1029.86278449331
 30
0.0
 10
3349.232230117093
 20
1029.863627728605
 30
0.0
 11
3346.372219013696
 21
1029.40458212306
 31
0.0
 11
3346.633249587581
 21
1029.444761612518
 31
0.0
 11
3346.899764797886
 21
1029.48596158435
 31
0.0
 11
3347.168207767534
 21
1029.527644501515
 31
0.0
 11
3347.435021619451
 21
1029.569272826977
 31
0.0
 11
3347.64447945098
 21
1029.602107162403
 31
0.0
 11
3347.84796337058
 21
1029.634148570389
 31
0.0
 11
3348.043382649214
 21
1029.665068735194
 31
0.0
 11
3348.228646557842
 21
1029.694539341078
 31
0.0
 11
3348.401664367427
 21
1029.722232072301
 31
0.0
 11
3348.535397368864
 21
1029.74377975015
 31
0.0
 11
3348.658375749631
 21
1029.76373148162
 31
0.0
 11
3348.770127942086
 21
1029.782005403871
 31
0.0
 11
3348.870182378585
 21
1029.798519654064
 31
0.0
 11
3348.958067491483
 21
1029.813192369359
 31
0.0
 11
3349.033311713137
 21
1029.825941686916
 31
0.0
 11
3349.096178835891
 21
1029.836806353134
 31
0.0
 11
3349.146686919902
 21
1029.845775077591
 31
0.0
 11
3349.185099025809
 21
1029.852879613924
 31
0.0
 11
3349.206201514783
 21
1029.857016496341
 31
0.0
 11
3349.220927530647
 21
1029.860163434402
 31
0.0
 11
3349.22524409885
 21
1029.861262223705
 31
0.0
 11
3349.232230117093
 21
1029.863627728605
 31
0.0
  0
SPLINE
  5
202
330
1F
100
AcDbEntity
  8
0
  6
Continuous
 62
     7
100
AcDbSpline
210
0.0
220
0.0
230
1.0
 70
     8
 71
     3
 72
    11
 73
     7
 74
     5
 42
0.0000000001
 43
0.0000000001
 44
0.00000001
 40
0.0
 40
0.0
 40
0.0
 40
0.0
 40
0.0112384298996906
 40
0.0253398878489973
 40
0.0306968255006931
 40
0.0416806665962153
 40
0.0416806665962153
 40
0.0416806665962153
 40
0.0416806665962153
 10
3348.589301173843
 20
994.2954469888699
 30
0.0
 10
3348.588587798967
 20
994.2917693816505
 30
0.0
 10
3348.586979314552
 20
994.2834772843274
 30
0.0
 10
3348.584946443553
 20
994.2734488993472
 30
0.0
 10
3348.582931633025
 20
994.2635035163146
 30
0.0
 10
3348.581819512849
 20
994.2581713120594
 30
0.0
 10
3348.581071974957
 20
994.2545871447967
 30
0.0
 11
3348.589301173843
 21
994.2954469888699
 31
0.0
 11
3348.587147353471
 21
994.2844168771563
 31
0.0
 11
3348.584367748196
 21
994.2705920838192
 31
0.0
 11
3348.583300758267
 21
994.265342482549
 31
0.0
 11
3348.581071974957
 21
994.2545871447967
 31
0.0
  0
SPLINE
  5
203
330
1F
100
AcDbEntity
  8
0
  6
Continuous
 62
     7
100
AcDbSpline
210
0.0
220
0.0
230
1.0
 70
     8
 71
     3
 72
    11
 73
     7
 74
     5
 42
0.0000000001
 43
0.0000000001
 44
0.00000001
 40
0.0
 40
0.0
 40
0.0
 40
0.0
 40
0.0102137168045983
 40
0.0143335232852059
 40
0.0312848852888864
 40
0.0422961334971237
 40
0.0422961334971237
 40
0.0422961334971237
 40
0.0422961334971237
 10
3348.581060188494
 20
1033.517450341093
 30
0.0
 10
3348.581757298995
 20
1033.514117887219
 30
0.0
 10
3348.582735596102
 20
1033.509441254206
 30
0.0
 10
3348.584807939058
 20
1033.499220937102
 30
0.0
 10
3348.586937356991
 20
1033.48874083862
 30
0.0
 10
3348.588711962087
 20
1033.479590426762
 30
0.0
 10
3348.589410774432
 20
1033.475987134529
 30
0.0
 11
3348.581060188494
 21
1033.517450341093
 31
0.0
 11
3348.583136881273
 21
1033.507449973197
 31
0.0
 11
3348.583958070229
 21
1033.5034128388
 31
0.0
 11
3348.587301720047
 21
1033.486794515188
 31
0.0
 11
3348.589410774432
 21
1033.475987134529
 31
0.0
  0
SPLINE
  5
204
330
1F
100
AcDbEntity
  8
0
  6
Continuous
 62
     2
100
AcDbSpline
210
0.0
220
0.0
230
1.0
 70
     8
 71
     3
 72
    34
 73
    30
 74
    28
 42
0.0000000001
 43
0.0000000001
 44
0.00000001
 40
0.0
 40
0.0
 40
0.0
 40
0.0
 40
0.4701034028669109
 40
0.9057005976582441
 40
1.303986990813501
 40
1.662156600360819
 40
1.977402206967746
 40
2.24691548856422
 40
2.467887145597851
 40
2.881899746866655
 40
3.261225606458884
 40
3.604537404580883
 40
3.91050665288537
 40
4.177803768211231
 40
4.405098142885303
 40
4.591058214842183
 40
4.677535590615714
 40
4.808012090137954
 40
4.973873098423668
 40
5.166504741204371
 40
5.377294232008921
 40
5.597630433622389
 40
5.818904831048784
 40
6.032513343916611
 40
6.22045220788373
 40
6.365143687433706
 40
6.467664653091095
 40
6.529169084438875
 40
6.551437497577561
 40
6.551437497577561
 40
6.551437497577561
 40
6.551437497577561
 10
3346.372219013696
 20
1029.40458212306
 30
0.0
 10
3346.361504334227
 20
1029.560916622778
 30
0.0
 10
3346.340861446856
 20
1029.862110464317
 30
0.0
 10
3346.309591885236
 20
1030.295647399803
 30
0.0
 10
3346.280054733771
 20
1030.691899427787
 30
0.0
 10
3346.252622816811
 20
1031.048078849832
 30
0.0
 10
3346.227798840388
 20
1031.361406746344
 30
0.0
 10
3346.206053549887
 20
1031.629102009895
 30
0.0
 10
3346.18113365171
 20
1031.929569657565
 30
0.0
 10
3346.152466018359
 20
1032.266455994236
 30
0.0
 10
3346.119263653262
 20
1032.643882296368
 30
0.0
 10
3346.08828998713
 20
1032.985349774488
 30
0.0
 10
3346.059902307162
 20
1033.289554490589
 30
0.0
 10
3346.03445667477
 20
1033.555192369594
 30
0.0
 10
3346.01231697987
 20
1033.780960122544
 30
0.0
 10
3345.995709340873
 20
1033.946707540034
 30
0.0
 10
3345.98215816649
 20
1034.080326802335
 30
0.0
 10
3345.969118655558
 20
1034.207263848584
 30
0.0
 10
3345.952172047259
 20
1034.369370239199
 30
0.0
 10
3345.932015579809
 20
1034.558057813184
 30
0.0
 10
3345.909340786191
 20
1034.764736297763
 30
0.0
 10
3345.884863576077
 20
1034.980825083811
 30
0.0
 10
3345.85921984117
 20
1035.197709265497
 30
0.0
 10
3345.833747354156
 20
1035.403792360398
 30
0.0
 10
3345.80930495032
 20
1035.584102051531
 30
0.0
 10
3345.789498671269
 20
1035.728114073454
 30
0.0
 10
3345.76994663284
 20
1035.828553013604
 30
0.0
 10
3345.761827948646
 20
1035.891262197272
 30
0.0
 10
3345.748550059682
 20
1035.915959689375
 30
0.0
 10
3345.745020544612
 20
1035.922524751848
 30
0.0
 11
3346.372219013696
 21
1029.40458212306
 31
0.0
 11
3346.339785146692
 21
1029.873565335615
 31
0.0
 11
3346.308515498309
 21
1030.308038723983
 31
0.0
 11
3346.278889121346
 21
1030.705221715513
 31
0.0
 11
3346.251385068602
 21
1031.062333737553
 31
0.0
 11
3346.226482392874
 21
1031.376594217453
 31
0.0
 11
3346.204660146961
 21
1031.64522258256
 31
0.0
 11
3346.186397383665
 21
1031.865438260224
 31
0.0
 11
3346.151280940056
 21
1032.277958889281
 31
0.0
 11
3346.118032147678
 21
1032.655824772315
 31
0.0
 11
3346.087009564176
 21
1032.997732055131
 31
0.0
 11
3346.058571747196
 21
1033.302376883535
 31
0.0
 11
3346.033077254385
 21
1033.568455403333
 31
0.0
 11
3346.01088464339
 21
1033.794663760331
 31
0.0
 11
3345.992352471856
 21
1033.979698100334
 31
0.0
 11
3345.983623189257
 21
1034.065733768205
 31
0.0
 11
3345.970289710441
 21
1034.195527201283
 31
0.0
 11
3345.953042383738
 21
1034.360489026537
 31
0.0
 11
3345.932571557481
 21
1034.552029870935
 31
0.0
 11
3345.909567580002
 21
1034.761560361446
 31
0.0
 11
3345.88472079963
 21
1034.980491125037
 31
0.0
 11
3345.858721564698
 21
1035.200232788678
 31
0.0
 11
3345.832260223538
 21
1035.412195979335
 31
0.0
 11
3345.807288101534
 21
1035.59846838661
 31
0.0
 11
3345.7860703474
 21
1035.741595711617
 31
0.0
 11
3345.768614686376
 21
1035.842619710239
 31
0.0
 11
3345.7549288437
 21
1035.902582138356
 31
0.0
 11
3345.745020544612
 21
1035.922524751848
 31
0.0
  0
SPLINE
  5
205
330
1F
100
AcDbEntity
  8
0
  6
Continuous
 62
     2
100
AcDbSpline
210
0.0
220
0.0
230
1.0
 70
     8
 71
     3
 72
    12
 73
     8
 74
     6
 42
0.0000000001
 43
0.0000000001
 44
0.00000001
 40
0.0
 40
0.0
 40
0.0
 40
0.0
 40
17.02063512226209
 40
34.04127024452418
 40
54.23584430007854
 40
82.07139613640645
 40
102.2659702235034
 40
102.2659702235034
 40
102.2659702235034
 40
102.2659702235034
 10
3111.592810795807
 20
1033.517450341091
 30
0.0
 10
3117.266355836533
 20
1033.517450526089
 30
0.0
 10
3128.613445917985
 20
1033.517450896085
 30
0.0
 10
3146.692060685124
 20
1033.517430322043
 30
0.0
 10
3168.375647687555
 20
1033.517516646933
 30
0.0
 10
3191.117214357435
 20
1033.517576147719
 30
0.0
 10
3207.127256301585
 20
1033.518611246082
 30
0.0
 10
3213.858780984534
 20
1033.519046459819
 30
0.0
 11
3111.592810795807
 21
1033.517450341091
 31
0.0
 11
3128.613445918069
 21
1033.517447575249
 31
0.0
 11
3145.634081040331
 21
1033.517444809406
 31
0.0
 11
3165.828655095802
 21
1033.517502644452
 31
0.0
 11
3193.664206929055
 21
1033.517916401813
 31
0.0
 11
3213.858780984534
 21
1033.519046459819
 31
0.0
  0
SPLINE
  5
206
330
1F
100
AcDbEntity
  8
0
  6
Continuous
 62
     2
100
AcDbSpline
210
0.0
220
0.0
230
1.0
 70
     8
 71
     3
 72
    18
 73
    14
 74
    12
 42
0.0000000001
 43
0.0000000001
 44
0.00000001
 40
0.0
 40
0.0
 40
0.0
 40
0.0
 40
0.4578360739002719
 40
0.9069817650340164
 40
1.191202982590129
 40
1.455825196835774
 40
1.694946013868335
 40
1.903504936796028
 40
2.077683594725322
 40
2.215091448394061
 40
2.314843444618941
 40
2.377550336644913
 40
2.40507581632147
 40
2.40507581632147
 40
2.40507581632147
 40
2.40507581632147
 10
3111.592810795807
 20
1033.517450341091
 30
0.0
 10
3111.592899093725
 20
1033.670062341534
 30
0.0
 10
3111.593074013538
 20
1033.972389548623
 30
0.0
 10
3111.593143530681
 20
1034.369457212886
 30
0.0
 10
3111.593144941723
 20
1034.702120252854
 30
0.0
 10
3111.593115526682
 20
1034.964775003979
 30
0.0
 10
3111.593076237834
 20
1035.202208977039
 30
0.0
 10
3111.593038844288
 20
1035.409495131765
 30
0.0
 10
3111.593038617888
 20
1035.582876872984
 30
0.0
 10
3111.593041488271
 20
1035.71998989428
 30
0.0
 10
3111.593180315738
 20
1035.819945023522
 30
0.0
 10
3111.593206394031
 20
1035.883273849116
 30
0.0
 10
3111.593497286153
 20
1035.913349992689
 30
0.0
 10
3111.5935860231
 20
1035.922524751847
 30
0.0
 11
3111.592810795807
 21
1033.517450341091
 31
0.0
 11
3111.593044604961
 21
1033.97528635529
 31
0.0
 11
3111.593137491282
 21
1034.424432036819
 31
0.0
 11
3111.593139266839
 21
1034.70865325437
 31
0.0
 11
3111.593112096566
 21
1034.97327546722
 31
0.0
 11
3111.593073916777
 21
1035.212396281205
 31
0.0
 11
3111.59304356126
 21
1035.420955201924
 31
0.0
 11
3111.593039323704
 21
1035.595133859801
 31
0.0
 11
3111.593078053259
 21
1035.732541708012
 31
0.0
 11
3111.593177517549
 21
1035.832293654648
 31
0.0
 11
3111.593345728984
 21
1035.89500032106
 31
0.0
 11
3111.5935860231
 21
1035.922524751847
 31
0.0
  0
SPLINE
  5
207
330
1F
100
AcDbEntity
  8
0
  6
Continuous
 62
     2
100
AcDbSpline
210
0.0
220
0.0
230
1.0
 70
     8
 71
     3
 72
    12
 73
     8
 74
     6
 42
0.0000000001
 43
0.0000000001
 44
0.00000001
 40
0.0
 40
0.0
 40
0.0
 40
0.0
 40
17.02024750861574
 40
34.04049501723058
 40
54.30180072524855
 40
82.20408421104275
 40
102.4653899190607
 40
102.4653899190607
 40
102.4653899190607
 40
102.4653899190607
 10
3111.5935860231
 20
1035.922524751847
 30
0.0
 10
3117.267001859306
 20
1035.922524842306
 30
0.0
 10
3128.613833531716
 20
1035.922525023224
 30
0.0
 10
3146.714433773465
 20
1035.922525464978
 30
0.0
 10
3168.442379340941
 20
1035.922525189866
 30
0.0
 10
3191.250677641551
 20
1035.922525069387
 30
0.0
 10
3207.305207372822
 20
1035.922524991497
 30
0.0
 10
3214.058975942161
 20
1035.922524958731
 30
0.0
 11
3111.5935860231
 21
1035.922524751847
 31
0.0
 11
3128.613833531716
 21
1035.922525047226
 31
0.0
 11
3145.634081040331
 21
1035.922525342604
 31
0.0
 11
3165.895386748349
 21
1035.922525243082
 31
0.0
 11
3193.797670234143
 21
1035.922525058254
 31
0.0
 11
3214.058975942161
 21
1035.922524958731
 31
0.0
  0
SPLINE
  5
208
330
1F
100
AcDbEntity
  8
0
  6
Continuous
 62
     2
100
AcDbSpline
210
0.0
220
0.0
230
1.0
 70
     8
 71
     3
 72
    15
 73
    11
 74
     9
 42
0.0000000001
 43
0.0000000001
 44
0.00000001
 40
0.0
 40
0.0
 40
0.0
 40
0.0
 40
0.8113307097809975
 40
1.39008203009088
 40
2.204918975441347
 40
2.783718986285527
 40
3.496538995381808
 40
4.187634544856724
 40
5.008017298321858
 40
5.596004399953413
 40
5.596004399953413
 40
5.596004399953413
 40
5.596004399953413
 10
3111.592811250044
 20
994.2545871447945
 30
0.0
 10
3111.321592184094
 20
994.2733791116831
 30
0.0
 10
3110.856902822221
 20
994.3055760631444
 30
0.0
 10
3110.158568558678
 20
994.5525364658712
 30
0.0
 10
3109.58699853109
 20
994.8889557508005
 30
0.0
 10
3109.064880655847
 20
995.362950585823
 30
0.0
 10
3108.660293098481
 20
995.8916059824228
 30
0.0
 10
3108.3312396679
 20
996.5596652301483
 30
0.0
 10
3108.144397981004
 20
997.2423223134017
 30
0.0
 10
3108.125527955423
 20
997.7122345778805
 30
0.0
 10
3108.117649817725
 20
997.9084205083108
 30
0.0
 11
3111.592811250044
 21
994.2545871447945
 31
0.0
 11
3110.787475378707
 21
994.3530333482349
 31
0.0
 11
3110.239813665371
 21
994.5401689635142
 31
0.0
 11
3109.538570150233
 21
994.9551590597639
 31
0.0
 11
3109.109462168054
 21
995.343586391685
 31
0.0
 11
3108.676171828915
 21
995.9096003909616
 31
0.0
 11
3108.368990669116
 21
996.528674533184
 31
0.0
 11
3108.159841753148
 21
997.3219491345249
 31
0.0
 11
3108.117649817725
 21
997.9084205083108
 31
0.0
  0
SPLINE
  5
209
330
1F
100
AcDbEntity
  8
0
  6
Continuous
 62
     2
100
AcDbSpline
210
0.0
220
0.0
230
1.0
 70
     8
 71
     3
 72
    15
 73
    11
 74
     9
 42
0.0000000001
 43
0.0000000001
 44
0.00000001
 40
0.0
 40
0.0
 40
0.0
 40
0.0
 40
1.169533161076314
 40
2.57845546022514
 40
4.083954147470209
 40
5.134604423788886
 40
6.355057951218249
 40
7.672950053904134
 40
9.208861155047437
 40
10.19031769318355
 40
10.19031769318355
 40
10.19031769318355
 40
10.19031769318355
 10
3111.593586583042
 20
991.8495158027979
 30
0.0
 10
3111.203302616045
 20
991.8707418295935
 30
0.0
 10
3110.34284832605
 20
991.917538591337
 30
0.0
 10
3109.02787006735
 20
992.3247497364059
 30
0.0
 10
3107.867885692665
 20
992.98054819646
 30
0.0
 10
3106.913602236191
 20
993.809713522326
 30
0.0
 10
3106.155095806339
 20
994.7448428689713
 30
0.0
 10
3105.521521233756
 20
995.9543105974576
 30
0.0
 10
3105.1681734412
 20
997.2002648534577
 30
0.0
 10
3105.133116376439
 20
998.0400485570756
 30
0.0
 10
3105.11944853354
 20
998.3674585045447
 30
0.0
 11
3111.593586583042
 21
991.8495158027979
 31
0.0
 11
3110.428953264634
 21
991.956459940141
 31
0.0
 11
3109.079015617631
 21
992.3598584952218
 31
0.0
 11
3107.770169940864
 21
993.1038002212355
 31
0.0
 11
3106.976602271594
 21
993.7923612987141
 31
0.0
 11
3106.208453059357
 21
994.740756575144
 31
0.0
 11
3105.593995269355
 21
995.9066387384127
 31
0.0
 11
3105.190376893588
 21
997.388568263511
 31
0.0
 11
3105.11944853354
 21
998.3674585045447
 31
0.0
  0
SPLINE
  5
20A
330
1F
100
AcDbEntity
  8
0
  6
Continuous
 62
     2
100
AcDbSpline
210
0.0
220
0.0
230
1.0
 70
     8
 71
     3
 72
    12
 73
     8
 74
     6
 42
0.0000000001
 43
0.0000000001
 44
0.00000001
 40
0.0
 40
0.0
 40
0.0
 40
0.0
 40
17.02063481693353
 40
34.0412696338666
 40
54.30283357245712
 40
82.20537528882502
 40
102.4669392274151
 40
102.4669392274151
 40
102.4669392274151
 40
102.4669392274151
 10
3111.592811250044
 20
994.2545871447945
 30
0.0
 10
3117.266356189022
 20
994.2545887884676
 30
0.0
 10
3128.613446066976
 20
994.2545920758134
 30
0.0
 10
3146.714390591129
 20
994.2546003248585
 30
0.0
 10
3168.442637415092
 20
994.2545944242634
 30
0.0
 10
3191.251193946275
 20
994.2545910996505
 30
0.0
 10
3207.30589583126
 20
994.2545892000048
 30
0.0
 10
3214.059750477457
 20
994.2545884008665
 30
0.0
 11
3111.592811250044
 21
994.2545871447945
 31
0.0
 11
3128.613446066977
 21
994.2545925467639
 31
0.0
 11
3145.634080883909
 21
994.2545979487332
 31
0.0
 11
3165.895644822499
 21
994.2545954733604
 31
0.0
 11
3193.798186538867
 21
994.2545908762395
 31
0.0
 11
3214.059750477457
 21
994.2545884008665
 31
0.0
  0
SPLINE
  5
20B
330
1F
100
AcDbEntity
  8
0
  6
Continuous
 62
     2
100
AcDbSpline
210
0.0
220
0.0
230
1.0
 70
     8
 71
     3
 72
    12
 73
     8
 74
     6
 42
0.0000000001
 43
0.0000000001
 44
0.00000001
 40
0.0
 40
0.0
 40
0.0
 40
0.0
 40
17.02024715043308
 40
34.04049430086707
 40
54.30179982192704
 40
82.20408312076279
 40
102.4653886418218
 40
102.4653886418218
 40
102.4653886418218
 40
102.4653886418218
 10
3111.593586583042
 20
991.8495158027979
 30
0.0
 10
3117.267002299854
 20
991.849515693647
 30
0.0
 10
3128.613833733476
 20
991.849515475345
 30
0.0
 10
3146.714433674117
 20
991.8495149245446
 30
0.0
 10
3168.442378997561
 20
991.8495153285926
 30
0.0
 10
3191.250677111213
 20
991.8495155647371
 30
0.0
 10
3207.305206717845
 20
991.8495156974427
 30
0.0
 10
3214.058975224864
 20
991.849515753269
 30
0.0
 11
3111.593586583042
 21
991.8495158027979
 31
0.0
 11
3128.613833733475
 21
991.8495154435996
 31
0.0
 11
3145.634080883909
 21
991.8495150844013
 31
0.0
 11
3165.895386404969
 21
991.8495152578115
 31
0.0
 11
3193.797669703805
 21
991.8495155798591
 31
0.0
 11
3214.058975224864
 21
991.849515753269
 31
0.0
  0
SPLINE
  5
20C
330
1F
100
AcDbEntity
  8
0
  6
Continuous
 62
     2
100
AcDbSpline
210
0.0
220
0.0
230
1.0
 70
     8
 71
     3
 72
    18
 73
    14
 74
    12
 42
0.0000000001
 43
0.0000000001
 44
0.00000001
 40
0.0
 40
0.0
 40
0.0
 40
0.0
 40
0.027525438085835
 40
0.0902322332199678
 40
0.189984083069741
 40
0.3273917445535279
 40
0.5015701696407291
 40
0.7101288241204664
 40
0.9492493420199868
 40
1.213871231175216
 40
1.498092102325194
 40
1.947237244263703
 40
2.405072748783409
 40
2.405072748783409
 40
2.405072748783409
 40
2.405072748783409
 10
3111.593586583042
 20
991.8495158027979
 30
0.0
 10
3111.59349780601
 20
991.8586905477305
 30
0.0
 10
3111.593206782492
 20
991.8887666439548
 30
0.0
 10
3111.59318069864
 20
991.9520953752506
 30
0.0
 10
3111.593041817282
 20
992.0520503589381
 30
0.0
 10
3111.593038959734
 20
992.1891631899381
 30
0.0
 10
3111.593039204212
 20
992.3625446999346
 30
0.0
 10
3111.593076636621
 20
992.569830587869
 30
0.0
 10
3111.593115968447
 20
992.8072642633572
 30
0.0
 10
3111.593145424648
 20
993.0699186909367
 30
0.0
 10
3111.593144048012
 20
993.4025813240073
 30
0.0
 10
3111.593074540793
 20
993.7996484999533
 30
0.0
 10
3111.592899572455
 20
994.1019753341583
 30
0.0
 10
3111.592811250044
 20
994.2545871447945
 30
0.0
 11
3111.593586583042
 21
991.8495158027979
 31
0.0
 11
3111.593346180655
 21
991.8770401910474
 31
0.0
 11
3111.593177897895
 21
991.9397467603756
 31
0.0
 11
3111.59307839789
 21
992.0394985606009
 31
0.0
 11
3111.593039664618
 21
992.1769062166255
 31
0.0
 11
3111.593043922187
 21
992.3510846416607
 31
0.0
 11
3111.593074313443
 21
992.5596432939261
 31
0.0
 11
3111.593112535872
 21
992.7987638087708
 31
0.0
 11
3111.593139746475
 21
993.063385696527
 31
0.0
 11
3111.593138000048
 21
993.3476065676716
 31
0.0
 11
3111.593045118389
 21
993.7967517000063
 31
0.0
 11
3111.592811250044
 21
994.2545871447945
 31
0.0
  0
SPLINE
  5
20D
330
1F
100
AcDbEntity
  8
0
  6
Continuous
 62
     2
100
AcDbSpline
210
0.0
220
0.0
230
1.0
 70
     8
 71
     3
 72
    18
 73
    14
 74
    12
 42
0.0000000001
 43
0.0000000001
 44
0.00000001
 40
0.0
 40
0.0
 40
0.0
 40
0.0
 40
0.4578357642525153
 40
0.9069811561176606
 40
1.191202182965375
 40
1.455824215316891
 40
1.69494486104708
 40
1.903503625676426
 40
2.077682141665942
 40
2.215089874049995
 40
2.314841774758227
 40
2.377548602008061
 40
2.405074053689078
 40
2.405074053689078
 40
2.405074053689078
 40
2.405074053689078
 10
3214.059750477457
 20
994.2545884008665
 30
0.0
 10
3214.059662168455
 20
994.1019765036455
 30
0.0
 10
3214.059487226682
 20
993.7996494995402
 30
0.0
 10
3214.059417715363
 20
993.4025821018134
 30
0.0
 10
3214.059416321737
 20
993.0699192858024
 30
0.0
 10
3214.059445757388
 20
992.8072647159802
 30
0.0
 10
3214.059485067982
 20
992.5698309134252
 30
0.0
 10
3214.059522481614
 20
992.3625449158737
 30
0.0
 10
3214.059522718868
 20
992.1891633151897
 30
0.0
 10
3214.059519856733
 20
992.0520504133992
 30
0.0
 10
3214.059381007667
 20
991.9520953781911
 30
0.0
 10
3214.059354928383
 20
991.8887666150715
 30
0.0
 10
3214.059063979214
 20
991.8586905029382
 30
0.0
 10
3214.058975224864
 20
991.849515753269
 30
0.0
 11
3214.059750477457
 21
994.2545884008665
 31
0.0
 11
3214.059516641775
 21
993.7967526963288
 31
0.0
 11
3214.059423759023
 21
993.3476073140677
 31
0.0
 11
3214.059421998244
 21
993.0633862872254
 31
0.0
 11
3214.059449188779
 21
992.7987642562708
 31
0.0
 11
3214.059487390199
 21
992.5596436135921
 31
0.0
 11
3214.059517764455
 21
992.3510848511746
 31
0.0
 11
3214.05952201374
 21
992.1769063352369
 31
0.0
 11
3214.059483285165
 21
992.0394986083107
 31
0.0
 11
3214.059383807278
 21
991.9397467572048
 31
0.0
 11
3214.059215565924
 21
991.8770401556498
 31
0.0
 11
3214.058975224864
 21
991.849515753269
 31
0.0
  0
SPLINE
  5
20E
330
1F
100
AcDbEntity
  8
0
  6
Continuous
 62
     2
100
AcDbSpline
210
0.0
220
0.0
230
1.0
 70
     8
 71
     3
 72
    18
 73
    14
 74
    12
 42
0.0000000001
 43
0.0000000001
 44
0.00000001
 40
0.0
 40
0.0
 40
0.0
 40
0.0
 40
0.0275256399286784
 40
0.0902329297492815
 40
0.189985557901955
 40
0.3273942639847955
 40
0.5015739707580853
 40
0.710134105475208
 40
0.9492562560117374
 40
1.213879878993538
 40
1.498102532218302
 40
1.947250325326002
 40
2.405088318800824
 40
2.405088318800824
 40
2.405088318800824
 40
2.405088318800824
 10
3214.058975942161
 20
1035.922524958731
 30
0.0
 10
3214.059064686349
 20
1035.913350146219
 30
0.0
 10
3214.059355602316
 20
1035.883273816842
 30
0.0
 10
3214.059381692664
 20
1035.819944594506
 30
0.0
 10
3214.059520544362
 20
1035.719988837963
 30
0.0
 10
3214.059523434121
 20
1035.582874972248
 30
0.0
 10
3214.059523229559
 20
1035.409492193355
 30
0.0
 10
3214.059485856747
 20
1035.202204840577
 30
0.0
 10
3214.059446588165
 20
1034.964769549504
 30
0.0
 10
3214.059417192388
 20
1034.702113405741
 30
0.0
 10
3214.059418624719
 20
1034.36944871698
 30
0.0
 10
3214.059488163534
 20
1033.972379233649
 30
0.0
 10
3214.059663096752
 20
1033.670050686051
 30
0.0
 10
3214.059751401415
 20
1033.517438045754
 30
0.0
 11
3214.058975942161
 21
1035.922524958731
 31
0.0
 11
3214.059216256334
 21
1035.895000367861
 31
0.0
 11
3214.059384488924
 21
1035.83229330371
 31
0.0
 11
3214.059483974922
 21
1035.732540725167
 31
0.0
 11
3214.059522726262
 21
1035.595132024548
 31
0.0
 11
3214.059518510457
 21
1035.420952317826
 31
0.0
 11
3214.059488176305
 21
1035.212392185315
 31
0.0
 11
3214.059450017096
 21
1034.973270037823
 31
0.0
 11
3214.059422866393
 21
1034.708646416234
 31
0.0
 11
3214.059424660259
 21
1034.424423763015
 31
0.0
 11
3214.059517571224
 21
1033.975275979517
 31
0.0
 11
3214.059751401415
 21
1033.517438045754
 31
0.0
  0
SPLINE
  5
20F
330
1F
100
AcDbEntity
  8
0
  6
DASHED
 62
     3
100
AcDbSpline
210
0.0
220
0.0
230
1.0
 70
     8
 71
     3
 72
    38
 73
    34
 74
    32
 42
0.0000000001
 43
0.0000000001
 44
0.00000001
 40
0.0
 40
0.0
 40
0.0
 40
0.0
 40
0.1255576724450737
 40
0.2510516103631576
 40
17.04567959547438
 40
33.84030758058514
 40
35.34452173575999
 40
37.15241891173508
 40
39.23759188930961
 40
41.57363344928415
 40
44.13413637245883
 40
46.89269343963331
 40
49.82289743160816
 40
52.89834112918259
 40
56.09261731315762
 40
59.37931876433202
 40
62.7320382635068
 40
66.12436859148119
 40
69.52990252905664
 40
72.92223285703011
 40
76.27495235620535
 40
79.56165380737883
 40
82.75592999135478
 40
85.8313736889292
 40
88.76157768090405
 40
91.52013474807853
 40
94.08063767125367
 40
96.41667923122776
 40
98.5018522088032
 40
100.3097493847778
 40
101.8139635399522
 40
101.939458267709
 40
102.0650169524982
 40
102.0650169524982
 40
102.0650169524982
 40
102.0650169524982
 10
3111.793782567978
 20
1033.519046141084
 30
0.0
 10
3111.835633583018
 20
1033.519405262799
 30
0.0
 10
3111.91931436904
 20
1033.520123323936
 30
0.0
 10
3117.600996486547
 20
1033.569231185875
 30
0.0
 10
3128.83955430771
 20
1033.497609657239
 30
0.0
 10
3140.537274303024
 20
1033.521660907914
 30
0.0
 10
3147.239522831403
 20
1033.521174758671
 30
0.0
 10
3149.038617436008
 20
1033.521213138626
 30
0.0
 10
3151.114988062044
 20
1033.521200375203
 30
0.0
 10
3153.442227198156
 20
1033.521204437791
 30
0.0
 10
3155.993927720309
 20
1033.521203186583
 30
0.0
 10
3158.743682379469
 20
1033.521203562048
 30
0.0
 10
3161.665083965518
 20
1033.521203451755
 30
0.0
 10
3164.731725256557
 20
1033.521203483569
 30
0.0
 10
3167.91719903417
 20
1033.521203474552
 30
0.0
 10
3171.195098078933
 20
1033.521203477008
 30
0.0
 10
3174.539015171713
 20
1033.52120347659
 30
0.0
 10
3177.922543093281
 20
1033.521203475716
 30
0.0
 10
3181.319274624474
 20
1033.521203479656
 30
0.0
 10
3184.702802545985
 20
1033.521203464879
 30
0.0
 10
3188.04671963899
 20
1033.521203519048
 30
0.0
 10
3191.324618682926
 20
1033.521203323048
 30
0.0
 10
3194.510092463505
 20
1033.521204023047
 30
0.0
 10
3197.57673374409
 20
1033.521201558138
 30
0.0
 10
3200.498135366383
 20
1033.521210102099
 30
0.0
 10
3203.247889902158
 20
1033.521181016763
 30
0.0
 10
3205.799590835482
 20
1033.521277941367
 30
0.0
 10
3208.126828636552
 20
1033.520963233818
 30
0.0
 10
3210.203203456885
 20
1033.521951949652
 30
0.0
 10
3212.002285449131
 20
1033.518978854712
 30
0.0
 10
3213.148181806102
 20
1033.525417409298
 30
0.0
 10
3213.733248198037
 20
1033.52011281452
 30
0.0
 10
3213.816929616291
 20
1033.519401971749
 30
0.0
 10
3213.858780984534
 20
1033.519046459819
 30
0.0
 11
3111.793782567978
 21
1033.519046141084
 31
0.0
 11
3111.919335606913
 21
1033.520124808801
 31
0.0
 11
3112.044824908967
 21
1033.521203476518
 31
0.0
 11
3128.839452894078
 21
1033.521203476518
 31
0.0
 11
3145.634080879189
 21
1033.521203476518
 31
0.0
 11
3147.138295034364
 21
1033.521203476518
 31
0.0
 11
3148.946192210339
 21
1033.521203476518
 31
0.0
 11
3151.031365187914
 21
1033.521203476518
 31
0.0
 11
3153.367406747888
 21
1033.521203476518
 31
0.0
 11
3155.927909671063
 21
1033.521203476518
 31
0.0
 11
3158.686466738237
 21
1033.521203476518
 31
0.0
 11
3161.616670730212
 21
1033.521203476518
 31
0.0
 11
3164.692114427787
 21
1033.521203476518
 31
0.0
 11
3167.886390611762
 21
1033.521203476518
 31
0.0
 11
3171.173092062936
 21
1033.521203476518
 31
0.0
 11
3174.525811562111
 21
1033.521203476518
 31
0.0
 11
3177.918141890085
 21
1033.521203476518
 31
0.0
 11
3181.323675827661
 21
1033.521203476518
 31
0.0
 11
3184.716006155634
 21
1033.521203476518
 31
0.0
 11
3188.068725654809
 21
1033.521203476518
 31
0.0
 11
3191.355427105983
 21
1033.521203476518
 31
0.0
 11
3194.549703289959
 21
1033.521203476518
 31
0.0
 11
3197.625146987533
 21
1033.521203476518
 31
0.0
 11
3200.555350979508
 21
1033.521203476518
 31
0.0
 11
3203.313908046683
 21
1033.521203476518
 31
0.0
 11
3205.874410969858
 21
1033.521203476518
 31
0.0
 11
3208.210452529832
 21
1033.521203476518
 31
0.0
 11
3210.295625507407
 21
1033.521203476518
 31
0.0
 11
3212.103522683382
 21
1033.521203476518
 31
0.0
 11
3213.607736838556
 21
1033.521203476518
 31
0.0
 11
3213.733226931849
 21
1033.520124968169
 31
0.0
 11
3213.858780984534
 21
1033.519046459819
 31
0.0
  0
SPLINE
  5
210
330
1F
100
AcDbEntity
  8
0
  6
Continuous
 62
     2
100
AcDbSpline
210
0.0
220
0.0
230
1.0
 70
     8
 71
     3
 72
     9
 73
     5
 74
     3
 42
0.0000000001
 43
0.0000000001
 44
0.00000001
 40
0.0
 40
0.0
 40
0.0
 40
0.0
 40
0.1004950634750993
 40
0.2009804730529582
 40
0.2009804730529582
 40
0.2009804730529582
 40
0.2009804730529582
 10
3213.858780984534
 20
1033.519046459819
 30
0.0
 10
3213.892275249483
 20
1033.518476809996
 30
0.0
 10
3213.95926056181
 20
1033.517337565072
 30
0.0
 10
3214.026255527559
 20
1033.517404553266
 30
0.0
 10
3214.059751401415
 20
1033.517438045754
 30
0.0
 11
3213.858780984534
 21
1033.519046459819
 31
0.0
 11
3213.95926619297
 21
1033.5176390976
 31
0.0
 11
3214.059751401415
 21
1033.517438045754
 31
0.0
  0
SPLINE
  5
211
330
1F
100
AcDbEntity
  8
0
  6
Continuous
 62
     2
100
AcDbSpline
210
0.0
220
0.0
230
1.0
 70
     8
 71
     3
 72
    19
 73
    15
 74
    13
 42
0.0000000001
 43
0.0000000001
 44
0.00000001
 40
0.0
 40
0.0
 40
0.0
 40
0.0
 40
0.5358658698892812
 40
1.083857691053744
 40
1.44098546852304
 40
1.779811906857656
 40
2.090796598396106
 40
2.365449846530952
 40
2.597215038426458
 40
2.782992221590684
 40
2.921808511440444
 40
3.017966167628911
 40
3.053200272251396
 40
3.082283931359577
 40
3.082283931359577
 40
3.082283931359577
 40
3.082283931359577
 10
3217.534905079176
 20
1029.863627761287
 30
0.0
 10
3217.7135186022
 20
1029.861069688656
 30
0.0
 10
3218.074787441164
 20
1029.855895657522
 30
0.0
 10
3218.554639038086
 20
1029.832024549469
 30
0.0
 10
3218.968113747868
 20
1029.800464169151
 30
0.0
 10
3219.302062052079
 20
1029.766319776674
 30
0.0
 10
3219.607617178014
 20
1029.725933370387
 30
0.0
 10
3219.876230892964
 20
1029.679758838722
 30
0.0
 10
3220.101565948981
 20
1029.629610855363
 30
0.0
 10
3220.279674235225
 20
1029.577200602023
 30
0.0
 10
3220.409725518988
 20
1029.523699698882
 30
0.0
 10
3220.48634214027
 20
1029.474831322294
 30
0.0
 10
3220.522630479127
 20
1029.434165483016
 30
0.0
 10
3220.529849460969
 20
1029.41379384636
 30
0.0
 10
3220.533113790989
 20
1029.40458205631
 30
0.0
 11
3217.534905079176
 21
1029.863627761287
 31
0.0
 11
3218.070662137802
 21
1029.852829398219
 31
0.0
 11
3218.617993909644
 21
1029.825941341484
 31
0.0
 11
3218.974060842859
 21
1029.798435187422
 31
0.0
 11
3219.311096790917
 21
1029.763648336007
 31
0.0
 11
3219.619311258534
 21
1029.722231910248
 31
0.0
 11
3219.889865651931
 21
1029.674959011836
 31
0.0
 11
3220.115841461099
 21
1029.623480493545
 31
0.0
 11
3220.293534178361
 21
1029.569272929345
 31
0.0
 11
3220.420815980257
 21
1029.513871618586
 31
0.0
 11
3220.499576300336
 21
1029.458707256678
 31
0.0
 11
3220.521822993022
 21
1029.43138461418
 31
0.0
 11
3220.533113790989
 21
1029.40458205631
 31
0.0
  0
SPLINE
  5
212
330
1F
100
AcDbEntity
  8
0
  6
Continuous
 62
     2
100
AcDbSpline
210
0.0
220
0.0
230
1.0
 70
     8
 71
     3
 72
    15
 73
    11
 74
     9
 42
0.0000000001
 43
0.0000000001
 44
0.00000001
 40
0.0
 40
0.0
 40
0.0
 40
0.0
 40
0.6922447962837727
 40
1.408556947339001
 40
2.09960190776391
 40
2.812455769707032
 40
3.508829644303725
 40
4.206339520133524
 40
4.784920664006043
 40
5.596385604004993
 40
5.596385604004993
 40
5.596385604004993
 40
5.596385604004993
 10
3108.117653574426
 20
1029.863627728603
 30
0.0
 10
3108.128576807202
 20
1030.09474862879
 30
0.0
 10
3108.150803042049
 20
1030.56502583619
 30
0.0
 10
3108.346753303443
 20
1031.243498532823
 30
0.0
 10
3108.660309575751
 20
1031.880495653913
 30
0.0
 10
3109.088706809366
 20
1032.440325731168
 30
0.0
 10
3109.620093774662
 20
1032.906877823899
 30
0.0
 10
3110.195614516988
 20
1033.232424747911
 30
0.0
 10
3110.856901319567
 20
1033.466522415818
 30
0.0
 10
3111.321558581984
 20
1033.498678585975
 30
0.0
 10
3111.592810795807
 20
1033.517450341091
 30
0.0
 11
3108.117653574426
 21
1029.863627728603
 31
0.0
 11
3108.176805718379
 21
1030.553340626734
 31
0.0
 11
3108.369003923236
 21
1031.243386239573
 31
0.0
 11
3108.676161189031
 21
1031.862415763423
 31
0.0
 11
3109.10947057336
 21
1032.428457816578
 31
0.0
 11
3109.633565166368
 21
1032.887000541742
 31
0.0
 11
3110.239845992707
 21
1033.231882530969
 31
0.0
 11
3110.787343616385
 21
1033.41897206064
 31
0.0
 11
3111.592810795807
 21
1033.517450341091
 31
0.0
  0
SPLINE
  5
213
330
1F
100
AcDbEntity
  8
0
  6
Continuous
 62
     2
100
AcDbSpline
210
0.0
220
0.0
230
1.0
 70
     8
 71
     3
 72
    15
 73
    11
 74
     9
 42
0.0000000001
 43
0.0000000001
 44
0.00000001
 40
0.0
 40
0.0
 40
0.0
 40
0.0
 40
0.8116707418234996
 40
1.39004312862475
 40
2.204861638399817
 40
2.783695301727932
 40
3.496542530973717
 40
4.187589792442244
 40
5.005801309553932
 40
5.595973891377835
 40
5.595973891377835
 40
5.595973891377835
 40
5.595973891377835
 10
3214.059751401415
 20
1033.517438045754
 30
0.0
 10
3214.331085032039
 20
1033.498631137195
 30
0.0
 10
3214.795762923432
 20
1033.466422985952
 30
0.0
 10
3215.494062220537
 20
1033.219439226243
 30
0.0
 10
3216.06553102546
 20
1032.883088281463
 30
0.0
 10
3216.587662351727
 20
1032.409086634249
 30
0.0
 10
3216.992252267769
 20
1031.880427477762
 30
0.0
 10
3217.320976427014
 20
1031.213022452818
 30
0.0
 10
3217.508005789295
 20
1030.530466601813
 30
0.0
 10
3217.526961735106
 20
1030.060544868499
 30
0.0
 10
3217.534905079176
 20
1029.863627761287
 30
0.0
 11
3214.059751401415
 21
1033.517438045754
 31
0.0
 11
3214.865419621512
 21
1033.418908292595
 31
0.0
 11
3215.412713708976
 21
1033.231868725547
 31
0.0
 11
3216.113945587619
 21
1032.816895164646
 31
0.0
 11
3216.543081073077
 21
1032.428448070536
 31
0.0
 11
3216.976386318631
 21
1031.862411202109
 31
0.0
 11
3217.283544432659
 21
1031.243379530407
 31
0.0
 11
3217.492372094238
 21
1030.452265698842
 31
0.0
 11
3217.534905079176
 21
1029.863627761287
 31
0.0
  0
SPLINE
  5
214
330
1F
100
AcDbEntity
  8
0
  6
Continuous
 62
     2
100
AcDbSpline
210
0.0
220
0.0
230
1.0
 70
     8
 71
     3
 72
    15
 73
    11
 74
     9
 42
0.0000000001
 43
0.0000000001
 44
0.00000001
 40
0.0
 40
0.0
 40
0.0
 40
0.0
 40
0.9809044892449225
 40
2.517403486075308
 40
3.979687329456791
 40
5.055470226733433
 40
6.567920098722677
 40
7.611612871691768
 40
8.563428663083497
 40
10.18931669075668
 40
10.18931669075668
 40
10.18931669075668
 40
10.18931669075668
 10
3105.11944790064
 20
1029.404582123058
 30
0.0
 10
3105.133119412273
 20
1029.731818762553
 30
0.0
 10
3105.168206121956
 20
1030.57164227857
 30
0.0
 10
3105.534319359469
 20
1031.864231272322
 30
0.0
 10
3106.182748485374
 20
1033.06912608094
 30
0.0
 10
3107.048351133876
 20
1034.112707252664
 30
0.0
 10
3107.999831707051
 20
1034.881884618364
 30
0.0
 10
3109.040835061333
 20
1035.421746966608
 30
0.0
 10
3110.188130598872
 20
1035.821900869894
 30
0.0
 10
3111.049976359985
 20
1035.88360490165
 30
0.0
 10
3111.5935860231
 20
1035.922524751847
 30
0.0
 11
3105.11944790064
 21
1029.404582123058
 31
0.0
 11
3105.190296816453
 21
1030.382924623489
 31
0.0
 11
3105.594007708256
 21
1031.865438260222
 31
0.0
 11
3106.290223233108
 21
1033.151345714734
 31
0.0
 11
3106.976620470389
 21
1033.979698100332
 31
0.0
 11
3108.153758116604
 21
1034.929356763823
 31
0.0
 11
3109.079047744944
 21
1035.412195979333
 31
0.0
 11
3109.980740791113
 21
1035.716995833718
 31
0.0
 11
3111.5935860231
 21
1035.922524751847
 31
0.0
  0
SPLINE
  5
215
330
1F
100
AcDbEntity
  8
0
  6
Continuous
 62
     2
100
AcDbSpline
210
0.0
220
0.0
230
1.0
 70
     8
 71
     3
 72
    15
 73
    11
 74
     9
 42
0.0000000001
 43
0.0000000001
 44
0.00000001
 40
0.0
 40
0.0
 40
0.0
 40
0.0
 40
1.173857773389837
 40
2.578433211862706
 40
4.083834966059139
 40
5.134591682851272
 40
6.652603306205684
 40
7.672479828918155
 40
9.208947548999147
 40
10.18987680008836
 40
10.18987680008836
 40
10.18987680008836
 40
10.18987680008836
 10
3214.058975942161
 20
1035.922524958731
 30
0.0
 10
3214.45070989783
 20
1035.901149694063
 30
0.0
 10
3215.311171756508
 20
1035.854197930757
 30
0.0
 10
3216.625881314133
 20
1035.44662198546
 30
0.0
 10
3217.784682760288
 20
1034.791412027011
 30
0.0
 10
3218.813954210443
 20
1033.897392179334
 30
0.0
 10
3219.553873740972
 20
1032.941009918959
 30
0.0
 10
3220.157886169697
 20
1031.721198009156
 30
0.0
 10
3220.484538055649
 20
1030.571534853421
 30
0.0
 10
3220.51949317454
 20
1029.731795146399
 30
0.0
 10
3220.533113790989
 20
1029.40458205631
 30
0.0
 11
3214.058975942161
 21
1035.922524958731
 31
0.0
 11
3215.227879850283
 21
1035.814795084858
 31
0.0
 11
3216.573519076366
 21
1035.412194494213
 31
0.0
 11
3217.882290301574
 21
1034.668317944237
 31
0.0
 11
3218.675945269271
 21
1033.979695064763
 31
0.0
 11
3219.603975913608
 21
1032.778396429198
 31
0.0
 11
3220.058557126592
 21
1031.865432003614
 31
0.0
 11
3220.462262157826
 21
1030.382949186645
 31
0.0
 11
3220.533113790989
 21
1029.40458205631
 31
0.0
  0
SPLINE
  5
216
330
1F
100
AcDbEntity
  8
0
  6
Continuous
 62
     2
100
AcDbSpline
210
0.0
220
0.0
230
1.0
 70
     8
 71
     3
 72
    19
 73
    15
 74
    13
 42
0.0000000001
 43
0.0000000001
 44
0.00000001
 40
0.0
 40
0.0
 40
0.0
 40
0.0
 40
0.5358645673307494
 40
1.083855023670762
 40
1.440981898654666
 40
1.779807468847155
 40
2.090791346513582
 40
2.365443843454652
 40
2.597208353765434
 40
2.782984883245596
 40
2.921800689312891
 40
3.017957581984791
 40
3.053190987866909
 40
3.082273874149115
 40
3.082273874149115
 40
3.082273874149115
 40
3.082273874149115
 10
3108.117649817725
 20
997.9084205083108
 30
0.0
 10
3107.93903672395
 20
997.9109782685973
 30
0.0
 10
3107.577768764127
 20
997.9161516678191
 30
0.0
 10
3107.09791833006
 20
997.940022278234
 30
0.0
 10
3106.684444640419
 20
997.9715822894079
 30
0.0
 10
3106.350497171826
 20
998.0057263846452
 30
0.0
 10
3106.044942821109
 20
998.0461124600419
 30
0.0
 10
3105.776329796654
 20
998.0922865741773
 30
0.0
 10
3105.550995335221
 20
998.1424340129324
 30
0.0
 10
3105.372887487381
 20
998.1948435716513
 30
0.0
 10
3105.24283653927
 20
998.248343596403
 30
0.0
 10
3105.16622010556
 20
998.2972109791078
 30
0.0
 10
3105.129931834436
 20
998.3378758708267
 30
0.0
 10
3105.122712851844
 20
998.3582469848432
 30
0.0
 10
3105.11944853354
 20
998.3674585045447
 30
0.0
 11
3108.117649817725
 21
997.9084205083108
 31
0.0
 11
3107.581894044311
 21
997.9192179975767
 31
0.0
 11
3107.034563608612
 21
997.9461054369682
 31
0.0
 11
3106.678497555509
 21
997.973611266595
 31
0.0
 11
3106.341462448121
 21
998.0083978071505
 31
0.0
 11
3106.033248754887
 21
998.0498138846062
 31
0.0
 11
3105.762695047338
 21
998.0970863438978
 31
0.0
 11
3105.536719807145
 21
998.1485642912071
 31
0.0
 11
3105.359027546183
 21
998.202771110888
 31
0.0
 11
3105.231745901075
 21
998.2581715696645
 31
0.0
 11
3105.152985765462
 21
998.3133348640418
 31
0.0
 11
3105.13073925297
 21
998.3406567521906
 31
0.0
 11
3105.11944853354
 21
998.3674585045447
 31
0.0
  0
SPLINE
  5
217
330
1F
100
AcDbEntity
  8
0
  6
Continuous
 62
     2
100
AcDbSpline
210
0.0
220
0.0
230
1.0
 70
     8
 71
     3
 72
    11
 73
     7
 74
     5
 42
0.0000000001
 43
0.0000000001
 44
0.00000001
 40
0.0
 40
0.0
 40
0.0
 40
0.0
 40
1.700136055932036
 40
3.400272111863958
 40
5.100407417987644
 40
6.800542724112012
 40
6.800542724112012
 40
6.800542724112012
 40
6.800542724112012
 10
3105.15198608542
 20
1010.485716660424
 30
0.0
 10
3105.151986103951
 20
1011.052428679068
 30
0.0
 10
3105.151986141012
 20
1012.185852716356
 30
0.0
 10
3105.151986257436
 20
1013.885988522352
 30
0.0
 10
3105.151986130538
 20
1015.586124078412
 30
0.0
 10
3105.151986086493
 20
1016.719547615828
 30
0.0
 10
3105.151986064471
 20
1017.286259384536
 30
0.0
 11
3105.15198608542
 21
1010.485716660424
 31
0.0
 11
3105.151986151151
 21
1012.185852716356
 31
0.0
 11
3105.151986216882
 21
1013.885988772288
 31
0.0
 11
3105.151986140676
 21
1015.586124078412
 31
0.0
 11
3105.151986064471
 21
1017.286259384536
 31
0.0
  0
SPLINE
  5
218
330
1F
100
AcDbEntity
  8
0
  6
Continuous
 62
     2
100
AcDbSpline
210
0.0
220
0.0
230
1.0
 70
     8
 71
     3
 72
    11
 73
     7
 74
     5
 42
0.0000000001
 43
0.0000000001
 44
0.00000001
 40
0.0
 40
0.0
 40
0.0
 40
0.0
 40
1.699999626052394
 40
3.399999252105129
 40
5.099999626007081
 40
6.799999999909147
 40
6.799999999909147
 40
6.799999999909147
 40
6.799999999909147
 10
3108.15016634957
 20
1010.485989520191
 30
0.0
 10
3108.150165298319
 20
1011.052656062207
 30
0.0
 10
3108.150163195817
 20
1012.185989146239
 30
0.0
 10
3108.150156684119
 20
1013.885989021571
 30
0.0
 10
3108.150163604213
 20
1015.585989146185
 30
0.0
 10
3108.150165978976
 20
1016.719322728783
 30
0.0
 10
3108.150167166358
 20
1017.285989520082
 30
0.0
 11
3108.15016634957
 21
1010.485989520191
 31
0.0
 11
3108.15016263616
 21
1012.185989146239
 31
0.0
 11
3108.150158922751
 21
1013.885988772288
 31
0.0
 11
3108.150163044555
 21
1015.585989146185
 31
0.0
 11
3108.150167166358
 21
1017.285989520082
 31
0.0
  0
SPLINE
  5
219
330
1F
100
AcDbEntity
  8
0
  6
Continuous
 62
     2
100
AcDbSpline
210
0.0
220
0.0
230
1.0
 70
     8
 71
     3
 72
    11
 73
     7
 74
     5
 42
0.0000000001
 43
0.0000000001
 44
0.00000001
 40
0.0
 40
0.0
 40
0.0
 40
0.0
 40
3.717609724041645
 40
6.273297985447691
 40
9.836278687055813
 40
12.57762433014886
 40
12.57762433014886
 40
12.57762433014886
 40
12.57762433014886
 10
3108.117649817725
 20
997.9084205083108
 30
0.0
 10
3108.123559063168
 20
999.1476099518202
 30
0.0
 10
3108.133530647135
 20
1001.238685997076
 30
0.0
 10
3108.143465988883
 20
1004.517431347514
 30
0.0
 10
3108.149218372256
 20
1007.470765329486
 30
0.0
 10
3108.149879059307
 20
1009.572207580132
 30
0.0
 10
3108.15016634957
 20
1010.485989520191
 30
0.0
 11
3108.117649817725
 21
997.9084205083108
 31
0.0
 11
3108.134100959805
 21
1001.625993832431
 31
0.0
 11
3108.142063385516
 21
1004.18166969006
 31
0.0
 11
3108.148655471733
 21
1007.744644293454
 31
0.0
 11
3108.15016634957
 21
1010.485989520191
 31
0.0
  0
SPLINE
  5
21A
330
1F
100
AcDbEntity
  8
0
  6
Continuous
 62
     2
100
AcDbSpline
210
0.0
220
0.0
230
1.0
 70
     8
 71
     3
 72
    11
 73
     7
 74
     5
 42
0.0000000001
 43
0.0000000001
 44
0.00000001
 40
0.0
 40
0.0
 40
0.0
 40
0.0
 40
2.780126928617331
 40
6.044139588655423
 40
8.92304570525059
 40
12.11831569908952
 40
12.11831569908952
 40
12.11831569908952
 40
12.11831569908952
 10
3105.11944853354
 20
998.3674585045447
 30
0.0
 10
3105.1241226592
 20
999.2941558285569
 30
0.0
 10
3105.134284449892
 20
1001.308843692304
 30
0.0
 10
3105.144129758247
 20
1004.283177348975
 30
0.0
 10
3105.150776178439
 20
1007.395900936303
 30
0.0
 10
3105.151569018486
 20
1009.420626539751
 30
0.0
 10
3105.15198608542
 20
1010.485716660424
 30
0.0
 11
3105.11944853354
 21
998.3674585045447
 31
0.0
 11
3105.132731897685
 21
1001.147553699221
 31
0.0
 11
3105.143875489781
 21
1004.41154733666
 31
0.0
 11
3105.149757944002
 21
1007.290447443454
 31
0.0
 11
3105.15198608542
 21
1010.485716660424
 31
0.0
  0
SPLINE
  5
21B
330
1F
100
AcDbEntity
  8
0
  6
Continuous
 62
     2
100
AcDbSpline
210
0.0
220
0.0
230
1.0
 70
     8
 71
     3
 72
    11
 73
     7
 74
     5
 42
0.0000000001
 43
0.0000000001
 44
0.00000001
 40
0.0
 40
0.0
 40
0.0
 40
0.0
 40
3.768257223580248
 40
6.273145480088731
 40
9.847776602031661
 40
12.57769350690016
 40
12.57769350690016
 40
12.57769350690016
 40
12.57769350690016
 10
3108.117653574426
 20
1029.863627728603
 30
0.0
 10
3108.123636173197
 20
1028.607555930915
 30
0.0
 10
3108.133595608081
 20
1026.516530649777
 30
0.0
 10
3108.143511353307
 20
1023.233952612338
 30
0.0
 10
3108.149225225104
 20
1020.297478022907
 30
0.0
 10
3108.149882542822
 20
1018.195961879801
 30
0.0
 10
3108.150167166358
 20
1017.285989520082
 30
0.0
 11
3108.117653574426
 21
1029.863627728603
 31
0.0
 11
3108.134286846336
 21
1026.09540721524
 31
0.0
 11
3108.142064444292
 21
1023.590531033357
 31
0.0
 11
3108.148669836699
 21
1020.015906014316
 31
0.0
 11
3108.150167166358
 21
1017.285989520082
 31
0.0
  0
SPLINE
  5
21C
330
1F
100
AcDbEntity
  8
0
  6
Continuous
 62
     2
100
AcDbSpline
210
0.0
220
0.0
230
1.0
 70
     8
 71
     3
 72
    11
 73
     7
 74
     5
 42
0.0000000001
 43
0.0000000001
 44
0.00000001
 40
0.0
 40
0.0
 40
0.0
 40
0.0
 40
2.76277493860727
 40
6.043985155528818
 40
8.906337533266637
 40
12.11838028173268
 40
12.11838028173268
 40
12.11838028173268
 40
12.11838028173268
 10
3105.11944790064
 20
1029.404582123058
 30
0.0
 10
3105.124094846683
 20
1028.483668734963
 30
0.0
 10
3105.134260739139
 20
1026.469032374471
 30
0.0
 10
3105.144098585932
 20
1023.500268102669
 30
0.0
 10
3105.150768255877
 20
1020.381739037492
 30
0.0
 10
3105.151564842328
 20
1018.356940425694
 30
0.0
 10
3105.151986064471
 20
1017.286259384536
 30
0.0
 11
3105.11944790064
 21
1029.404582123058
 31
0.0
 11
3105.132659548201
 21
1026.641838773819
 31
0.0
 11
3105.143874843234
 21
1023.360647724095
 31
0.0
 11
3105.149734278822
 21
1020.498301343701
 31
0.0
 11
3105.151986064471
 21
1017.286259384536
 31
0.0
  0
SPLINE
  5
21D
330
1F
100
AcDbEntity
  8
0
  6
Continuous
 62
     2
100
AcDbSpline
210
0.0
220
0.0
230
1.0
 70
     8
 71
     3
 72
    11
 73
     7
 74
     5
 42
0.0000000001
 43
0.0000000001
 44
0.00000001
 40
0.0
 40
0.0
 40
0.0
 40
0.0
 40
2.851187178571558
 40
6.304468201308632
 40
8.5746231005761
 40
12.57769344798524
 40
12.57769344798524
 40
12.57769344798524
 40
12.57769344798524
 10
3217.502400538695
 20
1017.285989520082
 30
0.0
 10
3217.502711804708
 20
1018.236385312686
 30
0.0
 10
3217.503400067719
 20
1020.337874859973
 30
0.0
 10
3217.509033537909
 20
1023.196078297779
 30
0.0
 10
3217.518678938844
 20
1026.438233392939
 30
0.0
 10
3217.528584281898
 20
1028.529285585299
 30
0.0
 10
3217.534905079176
 20
1029.863627761287
 30
0.0
 11
3217.502400538695
 21
1017.285989520082
 31
0.0
 11
3217.504040724213
 21
1020.137176226884
 31
0.0
 11
3217.510508146526
 21
1023.590451193411
 31
0.0
 11
3217.517442975614
 21
1025.860595500457
 31
0.0
 11
3217.534905079176
 21
1029.863627761287
 31
0.0
  0
SPLINE
  5
21E
330
1F
100
AcDbEntity
  8
0
  6
Continuous
 62
     2
100
AcDbSpline
210
0.0
220
0.0
230
1.0
 70
     8
 71
     3
 72
    15
 73
    11
 74
     9
 42
0.0000000001
 43
0.0000000001
 44
0.00000001
 40
0.0
 40
0.0
 40
0.0
 40
0.0
 40
0.8376100807700744
 40
1.408346308192079
 40
2.099411085558331
 40
2.812252596793892
 40
3.391077687420951
 40
4.205904991277364
 40
4.784587430505576
 40
5.595966197065872
 40
5.595966197065872
 40
5.595966197065872
 40
5.595966197065872
 10
3217.534904694112
 20
997.9084170207628
 30
0.0
 10
3217.519032902783
 20
997.6284554668518
 30
0.0
 10
3217.492346286618
 20
997.1577318808559
 30
0.0
 10
3217.284197799247
 20
996.4849565073105
 30
0.0
 10
3216.992324848718
 20
995.891524121243
 30
0.0
 10
3216.587665317096
 20
995.3629637256519
 30
0.0
 10
3216.06555239964
 20
994.8889389531461
 30
0.0
 10
3215.493990064487
 20
994.5525408560463
 30
0.0
 10
3214.795668775052
 20
994.3055793103492
 30
0.0
 10
3214.330985890683
 20
994.2733819822323
 30
0.0
 10
3214.059750477457
 20
994.2545884008665
 30
0.0
 11
3217.534904694112
 21
997.9084170207628
 31
0.0
 11
3217.447337764334
 21
997.0753968047915
 31
0.0
 11
3217.283564967796
 21
996.5286625801394
 31
0.0
 11
3216.97639827508
 21
995.9096156114833
 31
0.0
 11
3216.543095746403
 21
995.3435838643323
 31
0.0
 11
3216.113967270532
 21
994.955141800781
 31
0.0
 11
3215.41272903986
 21
994.5401617061333
 31
0.0
 11
3214.865133401075
 21
994.3530457478232
 31
0.0
 11
3214.059750477457
 21
994.2545884008665
 31
0.0
  0
SPLINE
  5
21F
330
1F
100
AcDbEntity
  8
0
  6
Continuous
 62
     2
100
AcDbSpline
210
0.0
220
0.0
230
1.0
 70
     8
 71
     3
 72
    11
 73
     7
 74
     5
 42
0.0000000001
 43
0.0000000001
 44
0.00000001
 40
0.0
 40
0.0
 40
0.0
 40
0.0
 40
2.642032892824229
 40
6.304368835756572
 40
9.031910166081893
 40
12.57762785323087
 40
12.57762785323087
 40
12.57762785323087
 40
12.57762785323087
 10
3217.502388998048
 20
1010.485989520191
 30
0.0
 10
3217.502653755643
 20
1009.605311835822
 30
0.0
 10
3217.503285515202
 20
1007.50385542975
 30
0.0
 10
3217.509089783543
 20
1004.493222836123
 30
0.0
 10
3217.519234366561
 20
1001.18137244324
 30
0.0
 10
3217.529246002862
 20
999.090309623203
 30
0.0
 10
3217.534904694112
 20
997.9084170207628
 30
0.0
 11
3217.502388998048
 21
1010.485989520191
 31
0.0
 11
3217.503783861844
 21
1007.843956995577
 31
0.0
 11
3217.510484790189
 21
1004.18162718295
 31
0.0
 11
3217.51908074279
 21
1001.454099397898
 31
0.0
 11
3217.534904694112
 21
997.9084170207628
 31
0.0
  0
SPLINE
  5
220
330
1F
100
AcDbEntity
  8
0
  6
Continuous
 62
     2
100
AcDbSpline
210
0.0
220
0.0
230
1.0
 70
     8
 71
     3
 72
    11
 73
     7
 74
     5
 42
0.0000000001
 43
0.0000000001
 44
0.00000001
 40
0.0
 40
0.0
 40
0.0
 40
0.0
 40
1.700000374235578
 40
3.400000748470473
 40
5.100000374197557
 40
6.799999999924413
 40
6.799999999924413
 40
6.799999999924413
 40
6.799999999924413
 10
3217.502400538695
 20
1017.285989520082
 30
0.0
 10
3217.502400856041
 20
1016.719322728671
 30
0.0
 10
3217.502401490732
 20
1015.585989145848
 30
0.0
 10
3217.502406279971
 20
1013.885989021112
 30
0.0
 10
3217.502395720408
 20
1012.185989145903
 30
0.0
 10
3217.502391238835
 20
1011.052656062095
 30
0.0
 10
3217.502388998048
 20
1010.485989520191
 30
0.0
 11
3217.502400538695
 21
1017.285989520082
 31
0.0
 11
3217.502402130266
 21
1015.585989145847
 31
0.0
 11
3217.502403721837
 21
1013.885988771613
 31
0.0
 11
3217.502396359942
 21
1012.185989145902
 31
0.0
 11
3217.502388998048
 21
1010.485989520191
 31
0.0
  0
SPLINE
  5
221
330
1F
100
AcDbEntity
  8
0
  6
Continuous
 62
     2
100
AcDbSpline
210
0.0
220
0.0
230
1.0
 70
     8
 71
     3
 72
    11
 73
     7
 74
     5
 42
0.0000000001
 43
0.0000000001
 44
0.00000001
 40
0.0
 40
0.0
 40
0.0
 40
0.0
 40
1.700135305938602
 40
3.400270611876977
 40
5.100406668116428
 40
6.800542724355992
 40
6.800542724355992
 40
6.800542724355992
 40
6.800542724355992
 10
3220.500575536982
 20
1017.28625938349
 30
0.0
 10
3220.500575536645
 20
1016.719547614844
 30
0.0
 10
3220.500575535971
 20
1015.586124077552
 30
0.0
 10
3220.50057546178
 20
1013.885988521513
 30
0.0
 10
3220.500575680308
 20
1012.185852715373
 30
0.0
 10
3220.500575777206
 20
1011.05242867788
 30
0.0
 10
3220.500575825655
 20
1010.485716659134
 30
0.0
 11
3220.500575536982
 21
1017.28625938349
 31
0.0
 11
3220.500575523774
 21
1015.586124077551
 31
0.0
 11
3220.500575510567
 21
1013.885988771613
 31
0.0
 11
3220.500575668111
 21
1012.185852715374
 31
0.0
 11
3220.500575825655
 21
1010.485716659134
 31
0.0
  0
SPLINE
  5
222
330
1F
100
AcDbEntity
  8
0
  6
Continuous
 62
     2
100
AcDbSpline
210
0.0
220
0.0
230
1.0
 70
     8
 71
     3
 72
    11
 73
     7
 74
     5
 42
0.0000000001
 43
0.0000000001
 44
0.00000001
 40
0.0
 40
0.0
 40
0.0
 40
0.0
 40
3.244780340844186
 40
6.074216691839094
 40
9.337467705043334
 40
12.11831611951839
 40
12.11831611951839
 40
12.11831611951839
 40
12.11831611951839
 10
3220.500575825655
 20
1010.485716659134
 30
0.0
 10
3220.501005242042
 20
1009.404123082858
 30
0.0
 10
3220.501809107915
 20
1007.379383943477
 30
0.0
 10
3220.508487290047
 20
1004.26690081206
 30
0.0
 10
3220.518276766538
 20
1001.309070374028
 30
0.0
 10
3220.528438366991
 20
999.2943958966603
 30
0.0
 10
3220.533113649199
 20
998.3674580801822
 30
0.0
 11
3220.500575825655
 21
1010.485716659134
 31
0.0
 11
3220.502874364905
 21
1007.24093713241
 31
0.0
 11
3220.508686876316
 21
1004.411506751743
 31
0.0
 11
3220.519827351675
 21
1001.148274754936
 31
0.0
 11
3220.533113649199
 21
998.3674580801822
 31
0.0
  0
SPLINE
  5
223
330
1F
100
AcDbEntity
  8
0
  6
Continuous
 62
     2
100
AcDbSpline
210
0.0
220
0.0
230
1.0
 70
     8
 71
     3
 72
    19
 73
    15
 74
    13
 42
0.0000000001
 43
0.0000000001
 44
0.00000001
 40
0.0
 40
0.0
 40
0.0
 40
0.0
 40
0.0290823187127185
 40
0.0643151409716885
 40
0.1604722798193069
 40
0.2992889776147495
 40
0.4850659861568012
 40
0.7168311105734566
 40
0.9914843312623571
 40
1.302469031311277
 40
1.64129550505858
 40
1.998423359290979
 40
2.546415393700879
 40
3.082281643789818
 40
3.082281643789818
 40
3.082281643789818
 40
3.082281643789818
 10
3220.533113649199
 20
998.3674580801822
 30
0.0
 10
3220.52984936148
 20
998.3582467532019
 30
0.0
 10
3220.522630434858
 20
998.3378760324518
 30
0.0
 10
3220.486342341555
 20
998.297211416419
 30
0.0
 10
3220.409725737605
 20
998.248343950033
 30
0.0
 10
3220.279674365385
 20
998.1948435690091
 30
0.0
 10
3220.101565993775
 20
998.1424334474918
 30
0.0
 10
3219.876231066729
 20
998.0922853175153
 30
0.0
 10
3219.607617445646
 20
998.0461104167621
 30
0.0
 10
3219.302062372592
 20
998.0057235645995
 30
0.0
 10
3218.968114064683
 20
997.9715787931143
 30
0.0
 10
3218.554639259426
 20
997.9400182248767
 30
0.0
 10
3218.074787410461
 20
997.9161473961906
 30
0.0
 10
3217.713518353731
 20
997.910974521871
 30
0.0
 10
3217.534904694112
 20
997.9084170207628
 30
0.0
 11
3220.533113649199
 21
998.3674580801822
 31
0.0
 11
3220.521823065954
 21
998.3406568863338
 31
0.0
 11
3220.499576897186
 21
998.3133354709336
 31
0.0
 11
3220.420816569613
 21
998.2581720215132
 31
0.0
 11
3220.293534166168
 21
998.202771070619
 31
0.0
 11
3220.115841553159
 21
998.1485637631307
 31
0.0
 11
3219.889865838481
 21
998.0970851338598
 31
0.0
 11
3219.619311532923
 21
998.0498118921843
 31
0.0
 11
3219.311097114547
 21
998.0083950360813
 31
0.0
 11
3218.974061168452
 21
997.973607820722
 31
0.0
 11
3218.617994170133
 21
997.946101512783
 31
0.0
 11
3218.070662162878
 21
997.9192139020438
 31
0.0
 11
3217.534904694112
 21
997.9084170207628
 31
0.0
  0
SPLINE
  5
224
330
1F
100
AcDbEntity
  8
0
  6
Continuous
 62
     2
100
AcDbSpline
210
0.0
220
0.0
230
1.0
 70
     8
 71
     3
 72
    15
 73
    11
 74
     9
 42
0.0000000001
 43
0.0000000001
 44
0.00000001
 40
0.0
 40
0.0
 40
0.0
 40
0.0
 40
0.981141184513336
 40
2.517390137885092
 40
3.537308371445787
 40
5.055280651711707
 40
6.329558748362619
 40
7.611836154569178
 40
8.563354477058262
 40
10.18955237958188
 40
10.18955237958188
 40
10.18955237958188
 40
10.18955237958188
 10
3220.533113649199
 20
998.3674580801822
 30
0.0
 10
3220.519486037225
 20
998.0401732530323
 30
0.0
 10
3220.484520614792
 20
997.2004331532884
 30
0.0
 10
3220.1578715623
 20
996.0507882309064
 30
0.0
 10
3219.553808513354
 20
994.8309761600494
 30
0.0
 10
3218.768191425668
 20
993.815337422838
 30
0.0
 10
3217.721020014824
 20
992.9368630729114
 30
0.0
 10
3216.687227325949
 20
992.3763223123865
 30
0.0
 10
3215.46461663286
 20
991.950318785123
 30
0.0
 10
3214.602718755306
 20
991.8885093373422
 30
0.0
 10
3214.058975224864
 20
991.849515753269
 30
0.0
 11
3220.533113649199
 21
998.3674580801822
 31
0.0
 11
3220.462230221836
 21
997.3888807640373
 31
0.0
 11
3220.058558259955
 21
995.9066156750849
 31
0.0
 11
3219.60395704385
 21
994.993614614042
 31
0.0
 11
3218.675947601282
 21
993.7923493152174
 31
0.0
 11
3217.699140296584
 21
992.9740387646971
 31
0.0
 11
3216.573526055777
 21
992.359849927807
 31
0.0
 11
3215.672123153628
 21
992.0551206610314
 31
0.0
 11
3214.058975224864
 21
991.849515753269
 31
0.0
  0
SPLINE
  5
225
330
1F
100
AcDbEntity
  8
0
  6
Continuous
 62
     2
100
AcDbSpline
210
0.0
220
0.0
230
1.0
 70
     8
 71
     3
 72
    16
 73
    12
 74
    10
 42
0.0000000001
 43
0.0000000001
 44
0.00000001
 40
0.0
 40
0.0
 40
0.0
 40
0.0
 40
0.6050158270458509
 40
1.067745767579581
 40
1.354528033516829
 40
2.063736221265505
 40
2.495870636044748
 40
2.932083466825546
 40
3.267501476550809
 40
3.459010687737632
 40
3.615363058427166
 40
3.615363058427166
 40
3.615363058427166
 40
3.615363058427166
 10
3214.077751401415
 20
860.5632547098477
 30
0.0
 10
3214.279432333568
 20
860.5611384108652
 30
0.0
 10
3214.63536345484
 20
860.5574035180234
 30
0.0
 10
3215.086378068796
 20
860.5335705009531
 30
0.0
 10
3215.571143748434
 20
860.4963897654138
 30
0.0
 10
3216.044905113739
 20
860.4433143697468
 30
0.0
 10
3216.562504906767
 20
860.3547505116283
 30
0.0
 10
3216.956983544917
 20
860.2665448605985
 30
0.0
 10
3217.254270996341
 20
860.1593722473142
 30
0.0
 10
3217.474308252118
 20
860.0660441067521
 30
0.0
 10
3217.528532885236
 20
859.9598279460529
 30
0.0
 10
3217.552905079176
 20
859.9120872658629
 30
0.0
 11
3214.077751401415
 21
860.5632547098477
 31
0.0
 11
3214.682663891876
 21
860.5520730346832
 31
0.0
 11
3215.14477861306
 21
860.5282196841422
 31
0.0
 11
3215.430713708976
 21
860.5061926784548
 31
0.0
 11
3216.13521908647
 21
860.4246547936917
 31
0.0
 11
3216.561081073077
 21
860.3512945810429
 31
0.0
 11
3216.985319418005
 21
860.2497886185049
 31
0.0
 11
3217.301544432659
 21
860.1379540024195
 31
0.0
 11
3217.468112181487
 21
860.0434502299045
 31
0.0
 11
3217.552905079176
 21
859.9120872658629
 31
0.0
  0
SPLINE
  5
226
330
1F
100
AcDbEntity
  8
0
  6
Continuous
 62
     2
100
AcDbSpline
210
0.0
220
0.0
230
1.0
 70
     8
 71
     3
 72
    11
 73
     7
 74
     5
 42
0.0000000001
 43
0.0000000001
 44
0.00000001
 40
0.0
 40
0.0
 40
0.0
 40
0.0
 40
0.1210164252442138
 40
0.2420328504883602
 40
0.5445721658571332
 40
0.9676149843935345
 40
0.9676149843935345
 40
0.9676149843935345
 40
0.9676149843935345
 10
3217.520400422327
 20
858.9450183928494
 30
0.0
 10
3217.521755839828
 20
858.9853344232563
 30
0.0
 10
3217.524466674831
 20
859.06596648407
 30
0.0
 10
3217.53057131662
 20
859.2473878610185
 30
0.0
 10
3217.540040113572
 20
859.5294284803165
 30
0.0
 10
3217.548166864759
 20
859.7711526197618
 30
0.0
 10
3217.552905079176
 20
859.9120872658629
 30
0.0
 11
3217.520400422327
 21
858.9450183928494
 31
0.0
 11
3217.52446726179
 21
859.0659664643333
 31
0.0
 11
3217.528535568792
 21
859.1869144864627
 31
0.0
 11
3217.538694333154
 21
859.4892831965675
 31
0.0
 11
3217.552905079176
 21
859.9120872658629
 31
0.0
  0
SPLINE
  5
227
330
1F
100
AcDbEntity
  8
0
  6
Continuous
 62
     2
100
AcDbSpline
210
0.0
220
0.0
230
1.0
 70
     8
 71
     3
 72
    15
 73
    11
 74
     9
 42
0.0000000001
 43
0.0000000001
 44
0.00000001
 40
0.0
 40
0.0
 40
0.0
 40
0.0
 40
0.53781755392286
 40
1.105780237986505
 40
1.695342123224407
 40
2.295476630378534
 40
2.894209665812831
 40
3.479902731253587
 40
4.042366738243846
 40
4.574101089819408
 40
4.574101089819408
 40
4.574101089819408
 40
4.574101089819408
 10
3217.552905079176
 20
859.9120872658629
 30
0.0
 10
3217.732399040103
 20
859.9212671548061
 30
0.0
 10
3218.101447750736
 20
859.9401414732553
 30
0.0
 10
3218.649435577038
 20
860.0972823092499
 30
0.0
 10
3219.176821951009
 20
860.3593774388436
 30
0.0
 10
3219.651035336596
 20
860.7275694617398
 30
0.0
 10
3220.040490861905
 20
861.1828446694802
 30
0.0
 10
3220.32457047846
 20
861.6946792933965
 30
0.0
 10
3220.503216279466
 20
862.2307889392399
 30
0.0
 10
3220.535449703494
 20
862.595070799804
 30
0.0
 10
3220.551113790989
 20
862.7720964527871
 30
0.0
 11
3217.552905079176
 21
859.9120872658629
 31
0.0
 11
3218.088636818779
 21
859.9594077105901
 31
0.0
 11
3218.635993909644
 21
860.1110052883042
 31
0.0
 11
3219.16345492468
 21
860.3743835223006
 31
0.0
 11
3219.637311258534
 21
860.7426519047928
 31
0.0
 11
3220.026503815458
 21
861.1976358620427
 31
0.0
 11
3220.311534178361
 21
861.7092940087863
 31
0.0
 11
3220.48425435937
 21
862.2445822472447
 31
0.0
 11
3220.551113790989
 21
862.7720964527871
 31
0.0
  0
SPLINE
  5
228
330
1F
100
AcDbEntity
  8
0
  6
Continuous
 62
     2
100
AcDbSpline
210
0.0
220
0.0
230
1.0
 70
     8
 71
     3
 72
    20
 73
    16
 74
    14
 42
0.0000000001
 43
0.0000000001
 44
0.00000001
 40
0.0
 40
0.0
 40
0.0
 40
0.0
 40
0.8149449503287347
 40
1.516268498462576
 40
2.088521924259089
 40
2.516195513979772
 40
3.644200699380018
 40
4.624855666354316
 40
5.192482020143583
 40
5.602614201835889
 40
5.873093393435615
 40
6.0215064015763
 40
6.292950397997145
 40
6.463557184380118
 40
6.542260264973975
 40
6.542260264973975
 40
6.542260264973975
 40
6.542260264973975
 10
3214.076975942162
 20
863.3993027576745
 30
0.0
 10
3214.348575540242
 20
863.3939955860665
 30
0.0
 10
3214.853907728136
 20
863.3841211802898
 30
0.0
 10
3215.549709158971
 20
863.3607625416357
 30
0.0
 10
3216.1162896581
 20
863.3367464690177
 30
0.0
 10
3216.824692390202
 20
863.3007461816329
 30
0.0
 10
3217.668444536733
 20
863.2465283032714
 30
0.0
 10
3218.55734206623
 20
863.1691800575675
 30
0.0
 10
3219.205979368955
 20
863.0959807004807
 30
0.0
 10
3219.618486359227
 20
863.039594326601
 30
0.0
 10
3219.890677750328
 20
862.9942132546576
 30
0.0
 10
3220.117853502282
 20
862.9516957028673
 30
0.0
 10
3220.303053877942
 20
862.9002634510563
 30
0.0
 10
3220.483666996771
 20
862.8608211222136
 30
0.0
 10
3220.534930678338
 20
862.7933849563665
 30
0.0
 10
3220.551113790989
 20
862.7720964527871
 30
0.0
 11
3214.076975942162
 21
863.3993027576745
 31
0.0
 11
3214.891722790925
 21
863.3813348836565
 31
0.0
 11
3215.59266420838
 21
863.3581864827765
 31
0.0
 11
3216.164397276278
 21
863.3337880728243
 31
0.0
 11
3216.591519076366
 21
863.3120701715891
 31
0.0
 11
3217.717144559447
 21
863.238837869102
 31
0.0
 11
3218.69394526927
 21
863.1519785717236
 31
0.0
 11
3219.257900431587
 21
863.0875250814229
 31
0.0
 11
3219.664107784616
 21
863.0309212581875
 31
0.0
 11
3219.930886844303
 21
862.9863350899179
 31
0.0
 11
3220.076557126592
 21
862.9579345645134
 31
0.0
 11
3220.340211833801
 21
862.8933742163147
 31
0.0
 11
3220.499056106013
 21
862.8311233308167
 31
0.0
 11
3220.551113790989
 21
862.7720964527871
 31
0.0
  0
SPLINE
  5
229
330
1F
100
AcDbEntity
  8
0
  6
Continuous
 62
     2
100
AcDbSpline
210
0.0
220
0.0
230
1.0
 70
     8
 71
     3
 72
    16
 73
    12
 74
    10
 42
0.0000000001
 43
0.0000000001
 44
0.00000001
 40
0.0
 40
0.0
 40
0.0
 40
0.0
 40
0.1559355507715104
 40
0.3478783257931268
 40
0.6832968515990361
 40
1.119512506069148
 40
1.650840745720926
 40
2.260870092293675
 40
2.547816921092606
 40
3.010525662789606
 40
3.615400625820562
 40
3.615400625820562
 40
3.615400625820562
 40
3.615400625820562
 10
3108.135653574426
 20
859.9120872607982
 30
0.0
 10
3108.159918933985
 20
859.9597211864418
 30
0.0
 10
3108.214052790032
 20
860.0659882321664
 30
0.0
 10
3108.434163767074
 20
860.1593216743203
 30
0.0
 10
3108.731570451343
 20
860.2665435747732
 30
0.0
 10
3109.158481430796
 20
860.3620439611482
 30
0.0
 10
3109.676590476499
 20
860.4473802177042
 30
0.0
 10
3110.150422101726
 20
860.4989415779748
 30
0.0
 10
3110.602286514068
 20
860.5335749898527
 30
0.0
 10
3111.053298752372
 20
860.5574105773094
 30
0.0
 10
3111.409176469552
 20
860.5611426562615
 30
0.0
 10
3111.610810795807
 20
860.5632571893966
 30
0.0
 11
3108.135653574426
 21
859.9120872607982
 31
0.0
 11
3108.220088973741
 21
860.0431847792227
 31
0.0
 11
3108.387003923236
 21
860.1379551781766
 31
0.0
 11
3108.703229472711
 21
860.2497898298433
 31
0.0
 11
3109.12747057336
 21
860.351296409554
 31
0.0
 11
3109.651565166373
 21
860.4386723549069
 31
0.0
 11
3110.257845992707
 21
860.5061954124432
 31
0.0
 11
3110.543945314209
 21
860.5282331254311
 31
0.0
 11
3111.006039092617
 21
860.5520809680899
 31
0.0
 11
3111.610810795807
 21
860.5632571893966
 31
0.0
  0
SPLINE
  5
22A
330
1F
100
AcDbEntity
  8
0
  6
Continuous
 62
     2
100
AcDbSpline
210
0.0
220
0.0
230
1.0
 70
     8
 71
     3
 72
    15
 73
    11
 74
     9
 42
0.0000000001
 43
0.0000000001
 44
0.00000001
 40
0.0
 40
0.0
 40
0.0
 40
0.0
 40
0.5317343440408332
 40
1.094198408998828
 40
1.679891500321769
 40
2.278624456591165
 40
2.878758754214231
 40
3.468320344531436
 40
4.036282736348118
 40
4.574100100269672
 40
4.574100100269672
 40
4.574100100269672
 40
4.574100100269672
 10
3105.13744790064
 20
862.772098364194
 30
0.0
 10
3105.153111968032
 20
862.5950727141437
 30
0.0
 10
3105.185345352637
 20
862.2307908376617
 30
0.0
 10
3105.363990824387
 20
861.6946810770007
 30
0.0
 10
3105.648069960371
 20
861.1828461933096
 30
0.0
 10
3106.037524911422
 20
860.7275706168984
 30
0.0
 10
3106.511737734503
 20
860.3593781804574
 30
0.0
 10
3107.039123633288
 20
860.0972826772758
 30
0.0
 10
3107.587111127244
 20
859.9401415650344
 30
0.0
 10
3107.956159676917
 20
859.9212671819423
 30
0.0
 10
3108.135653574426
 20
859.9120872607982
 30
0.0
 11
3105.13744790064
 21
862.772098364194
 31
0.0
 11
3105.204307228241
 21
862.2445841530629
 31
0.0
 11
3105.377027114042
 21
861.70929575844
 31
0.0
 11
3105.662057025554
 21
861.1976373306123
 31
0.0
 11
3106.051249036445
 21
860.7426530104633
 31
0.0
 11
3106.525104806518
 21
860.3743842440005
 31
0.0
 11
3107.052565319515
 21
860.1110056647534
 31
0.0
 11
3107.599922036848
 21
859.9594078332765
 31
0.0
 11
3108.135653574426
 21
859.9120872607982
 31
0.0
  0
SPLINE
  5
22B
330
1F
100
AcDbEntity
  8
0
  6
Continuous
 62
     2
100
AcDbSpline
210
0.0
220
0.0
230
1.0
 70
     8
 71
     3
 72
    12
 73
     8
 74
     6
 42
0.0000000001
 43
0.0000000001
 44
0.00000001
 40
0.0
 40
0.0
 40
0.0
 40
0.0
 40
17.02024750861784
 40
34.04049501723659
 40
54.30180072525476
 40
82.20408421104902
 40
102.4653899190672
 40
102.4653899190672
 40
102.4653899190672
 40
102.4653899190672
 10
3111.6115860231
 20
863.3992968332789
 30
0.0
 10
3117.285001859305
 20
863.3992994236864
 30
0.0
 10
3128.631833531716
 20
863.3993046045016
 30
0.0
 10
3146.732433773465
 20
863.3993172547287
 30
0.0
 10
3168.460379340942
 20
863.3993093765289
 30
0.0
 10
3191.268677641552
 20
863.3993059264494
 30
0.0
 10
3207.323207372823
 20
863.399303695981
 30
0.0
 10
3214.076975942162
 20
863.3993027576745
 30
0.0
 11
3111.6115860231
 21
863.3992968332789
 31
0.0
 11
3128.631833531716
 21
863.3993052918288
 31
0.0
 11
3145.652081040332
 21
863.3993137503787
 31
0.0
 11
3165.91338674835
 21
863.3993109004184
 31
0.0
 11
3193.815670234144
 21
863.3993056076349
 31
0.0
 11
3214.076975942162
 21
863.3993027576745
 31
0.0
  0
SPLINE
  5
22C
330
1F
100
AcDbEntity
  8
0
  6
Continuous
 62
     2
100
AcDbSpline
210
0.0
220
0.0
230
1.0
 70
     8
 71
     3
 72
    15
 73
    11
 74
     9
 42
0.0000000001
 43
0.0000000001
 44
0.00000001
 40
0.0
 40
0.0
 40
0.0
 40
0.0
 40
0.4730725014880062
 40
0.9507896894526597
 40
1.412285789199423
 40
1.835606361825036
 40
2.200820986885804
 40
2.493302025297113
 40
2.705136633080573
 40
2.836048434384546
 40
2.836048434384546
 40
2.836048434384546
 40
2.836048434384546
 10
3214.076975942162
 20
863.3993027576745
 30
0.0
 10
3214.077099934685
 20
863.2416119707159
 30
0.0
 10
3214.077349137106
 20
862.9246821684332
 30
0.0
 10
3214.077502119733
 20
862.4539202499537
 30
0.0
 10
3214.077538112931
 20
861.999742294839
 30
0.0
 10
3214.077497746827
 20
861.5830652016093
 30
0.0
 10
3214.077426239017
 20
861.222726446128
 30
0.0
 10
3214.077422352247
 20
860.932883065248
 30
0.0
 10
3214.077429505975
 20
860.7211404811826
 30
0.0
 10
3214.077662434495
 20
860.6068918943668
 30
0.0
 10
3214.077751401415
 20
860.5632547098477
 30
0.0
 11
3214.076975942162
 21
863.3993027576745
 31
0.0
 11
3214.077311723408
 21
862.9262303753533
 31
0.0
 11
3214.077483974922
 21
862.4485132184432
 31
0.0
 11
3214.077524990049
 21
861.987017120519
 31
0.0
 11
3214.077488176305
 21
861.5636965494941
 31
0.0
 11
3214.077433936329
 21
861.1984819284611
 31
0.0
 11
3214.077424660259
 21
860.9060008901969
 31
0.0
 11
3214.077517918419
 21
860.6941663029414
 31
0.0
 11
3214.077751401415
 21
860.5632547098477
 31
0.0
  0
SPLINE
  5
22D
330
1F
100
AcDbEntity
  8
0
  6
Continuous
 62
     2
100
AcDbSpline
210
0.0
220
0.0
230
1.0
 70
     8
 71
     3
 72
    12
 73
     8
 74
     6
 42
0.0000000001
 43
0.0000000001
 44
0.00000001
 40
0.0
 40
0.0
 40
0.0
 40
0.0
 40
17.02063512226233
 40
34.04127024452511
 40
54.30283443896089
 40
82.20537641117201
 40
102.4669406056078
 40
102.4669406056078
 40
102.4669406056078
 40
102.4669406056078
 10
3111.610810795807
 20
860.5632571893966
 30
0.0
 10
3117.284355836561
 20
860.5632570097657
 30
0.0
 10
3128.631445918069
 20
860.5632566505045
 30
0.0
 10
3146.732390731056
 20
860.5632559569156
 30
0.0
 10
3168.460637827361
 20
860.5632557579727
 30
0.0
 10
3191.269194614387
 20
860.5632550588272
 30
0.0
 10
3207.323896669936
 20
860.5632548131844
 30
0.0
 10
3214.077751401415
 20
860.5632547098477
 30
0.0
 11
3111.610810795807
 21
860.5632571893966
 31
0.0
 11
3128.631445918069
 21
860.5632566316208
 31
0.0
 11
3145.652081040332
 21
860.5632560738449
 31
0.0
 11
3165.913645234768
 21
860.563255720216
 31
0.0
 11
3193.816187206979
 21
860.5632550634764
 31
0.0
 11
3214.077751401415
 21
860.5632547098477
 31
0.0
  0
SPLINE
  5
22E
330
1F
100
AcDbEntity
  8
0
  6
Continuous
 62
     2
100
AcDbSpline
210
0.0
220
0.0
230
1.0
 70
     8
 71
     3
 72
    11
 73
     7
 74
     5
 42
0.0000000001
 43
0.0000000001
 44
0.00000001
 40
0.0
 40
0.0
 40
0.0
 40
0.0
 40
0.4230257383516563
 40
0.7255727094816615
 40
0.8465936492291976
 40
0.967612501997392
 40
0.967612501997392
 40
0.967612501997392
 40
0.967612501997392
 10
3108.135653574426
 20
859.9120872607982
 30
0.0
 10
3108.140393306277
 20
859.7711583623347
 30
0.0
 10
3108.148522882729
 20
859.529437461141
 30
0.0
 10
3108.158002682428
 20
859.247398849224
 30
0.0
 10
3108.164104761947
 20
859.0659725174116
 30
0.0
 10
3108.166813039339
 20
858.9853380553277
 30
0.0
 10
3108.168167166358
 20
858.9450211719193
 30
0.0
 11
3108.135653574426
 21
859.9120872607982
 31
0.0
 11
3108.149871098152
 21
859.4893005091999
 31
0.0
 11
3108.160036932175
 21
859.1869243766124
 31
0.0
 11
3108.16410384238
 21
859.0659717904525
 31
0.0
 11
3108.168167166358
 21
858.9450211719193
 31
0.0
  0
SPLINE
  5
22F
330
1F
100
AcDbEntity
  8
0
  6
Continuous
 62
     2
100
AcDbSpline
210
0.0
220
0.0
230
1.0
 70
     8
 71
     3
 72
    15
 73
    11
 74
     9
 42
0.0000000001
 43
0.0000000001
 44
0.00000001
 40
0.0
 40
0.0
 40
0.0
 40
0.0
 40
0.1309114526656994
 40
0.342745557791208
 40
0.6352258941872952
 40
1.000439587532927
 40
1.42375898808745
 40
1.885253687917398
 40
2.362969279027615
 40
2.836040030364736
 40
2.836040030364736
 40
2.836040030364736
 40
2.836040030364736
 10
3111.610810795807
 20
860.5632571893966
 30
0.0
 10
3111.610899755367
 20
860.6068942577172
 30
0.0
 10
3111.611132664659
 20
860.7211425608052
 30
0.0
 10
3111.611139796213
 20
860.932884627094
 30
0.0
 10
3111.611135881696
 20
861.2227272958473
 30
0.0
 10
3111.611064344309
 20
861.583065116054
 30
0.0
 10
3111.611023946682
 20
861.9997410413805
 30
0.0
 10
3111.611059907809
 20
862.4539176068834
 30
0.0
 10
3111.611212858714
 20
862.9246779430662
 30
0.0
 10
3111.611462040744
 20
863.241606629696
 30
0.0
 10
3111.6115860231
 20
863.3992968332789
 30
0.0
 11
3111.610810795807
 21
860.5632571893966
 31
0.0
 11
3111.611044257795
 21
860.694168433889
 31
0.0
 11
3111.611137491282
 21
860.9060025184973
 31
0.0
 11
3111.611128187294
 21
861.1984828547454
 31
0.0
 11
3111.611073916777
 21
861.5636965440588
 31
0.0
 11
3111.611037070865
 21
861.9870159430097
 31
0.0
 11
3111.61107805326
 21
862.44851064102
 31
0.0
 11
3111.611250272586
 21
862.9262262010872
 31
0.0
 11
3111.6115860231
 21
863.3992968332789
 31
0.0
  0
SPLINE
  5
230
330
1F
100
AcDbEntity
  8
0
  6
Continuous
 62
     2
100
AcDbSpline
210
0.0
220
0.0
230
1.0
 70
     8
 71
     3
 72
    18
 73
    14
 74
    12
 42
0.0000000001
 43
0.0000000001
 44
0.00000001
 40
0.0
 40
0.0
 40
0.0
 40
0.0
 40
0.0787002557102044
 40
0.2493051756961679
 40
0.5207496138423864
 40
1.147536407726976
 40
1.917287163138545
 40
2.245982143109819
 40
2.708715728888309
 40
3.302890315057702
 40
4.025985653475054
 40
5.260269298217588
 40
6.542148889254236
 40
6.542148889254236
 40
6.542148889254236
 40
6.542148889254236
 10
3105.13744790064
 20
862.772098364194
 30
0.0
 10
3105.153635212064
 20
862.7933811443372
 30
0.0
 10
3105.204913069833
 20
862.8608003311626
 30
0.0
 10
3105.385306361401
 20
862.900476147409
 30
0.0
 10
3105.722724573287
 20
862.9911726272625
 30
0.0
 10
3106.278978503658
 20
863.0696766563176
 30
0.0
 10
3106.848008030268
 20
863.138511729992
 30
0.0
 10
3107.366227712487
 20
863.1888061190479
 30
0.0
 10
3107.826316532497
 20
863.2286013485952
 30
0.0
 10
3108.418085265881
 20
863.2723115403458
 30
0.0
 10
3109.267050343542
 20
863.3237617314043
 30
0.0
 10
3110.345831287236
 20
863.3721404069538
 30
0.0
 10
3111.184380423493
 20
863.3901312524104
 30
0.0
 10
3111.6115860231
 20
863.3992968332789
 30
0.0
 11
3105.13744790064
 21
862.772098364194
 31
0.0
 11
3105.189506070057
 21
862.8311210483567
 31
0.0
 11
3105.348351535845
 21
862.8933637726061
 31
0.0
 11
3105.612007708257
 21
862.9579199942254
 31
0.0
 11
3106.230271565802
 21
863.060932068474
 31
0.0
 11
3106.994620470389
 21
863.1519649060349
 31
0.0
 11
3107.321749569384
 21
863.1840108488151
 31
0.0
 11
3107.782753503281
 21
863.2239826431146
 31
0.0
 11
3108.375297739371
 21
863.2679686309539
 31
0.0
 11
3109.097047744944
 21
863.3120571543528
 31
0.0
 11
3110.330120543817
 21
863.3667159904171
 31
0.0
 11
3111.6115860231
 21
863.3992968332789
 31
0.0
  0
SPLINE
  5
231
330
1F
100
AcDbEntity
  8
0
  6
Continuous
 62
     2
100
AcDbSpline
210
0.0
220
0.0
230
1.0
 70
     8
 71
     3
 72
    11
 73
     7
 74
     5
 42
0.0000000001
 43
0.0000000001
 44
0.00000001
 40
0.0
 40
0.0
 40
0.0
 40
0.0
 40
3.188467943131829
 40
6.074317096463167
 40
9.37351470001381
 40
12.11838021706557
 40
12.11838021706557
 40
12.11838021706557
 40
12.11838021706557
 10
3220.500575536982
 20
1017.28625938349
 30
0.0
 10
3220.500990891978
 20
1018.34908215318
 30
0.0
 10
3220.501782180459
 20
1020.373854751048
 30
0.0
 10
3220.508448920465
 20
1023.498353637993
 30
0.0
 10
3220.518324486568
 20
1026.474976090154
 30
0.0
 10
3220.528494951377
 20
1028.489638412258
 30
0.0
 10
3220.533113790989
 20
1029.40458205631
 30
0.0
 11
3220.500575536982
 21
1017.28625938349
 31
0.0
 11
3220.502793936404
 21
1020.474726554888
 31
0.0
 11
3220.508686348797
 21
1023.360569692562
 31
0.0
 11
3220.519976315947
 21
1026.659747978729
 31
0.0
 11
3220.533113790989
 21
1029.40458205631
 31
0.0
  0
SPLINE
  5
232
330
1F
100
AcDbEntity
  8
0
  6
Continuous
 62
     2
100
AcDbSpline
210
0.0
220
0.0
230
1.0
 70
     8
 71
     3
 72
    19
 73
    15
 74
    13
 42
0.0000000001
 43
0.0000000001
 44
0.00000001
 40
0.0
 40
0.0
 40
0.0
 40
0.0
 40
0.0290834996564665
 40
0.0643174112191704
 40
0.1604749788020114
 40
0.2992912373085309
 40
0.4850681639070596
 40
0.7168330456837092
 40
0.991485947256955
 40
1.302470276710316
 40
1.641296360505129
 40
1.998423816386702
 40
2.546415259449662
 40
3.082280921829136
 40
3.082280921829136
 40
3.082280921829136
 40
3.082280921829136
 10
3105.11944790064
 20
1029.404582123058
 30
0.0
 10
3105.122712215444
 20
1029.413793861097
 30
0.0
 10
3105.129931163649
 20
1029.434165382767
 30
0.0
 10
3105.166219359159
 20
1029.474831140377
 30
0.0
 10
3105.24283585752
 20
1029.523699525937
 30
0.0
 10
3105.372886980307
 20
1029.577200482402
 30
0.0
 10
3105.550995034816
 20
1029.629610820341
 30
0.0
 10
3105.776329756996
 20
1029.679758901848
 30
0.0
 10
3106.044943109114
 20
1029.725933542969
 30
0.0
 10
3106.350497865015
 20
1029.76632004754
 30
0.0
 10
3106.684445814925
 20
1029.800464508463
 30
0.0
 10
3107.097920170927
 20
1029.832024911009
 30
0.0
 10
3107.577771471407
 20
1029.855895945164
 30
0.0
 10
3107.939040118785
 20
1029.861069761687
 30
0.0
 10
3108.117653574426
 20
1029.863627728603
 30
0.0
 11
3105.11944790064
 21
1029.404582123058
 31
0.0
 11
3105.130738639959
 21
1029.431384532612
 31
0.0
 11
3105.152985188615
 21
1029.458707043421
 31
0.0
 11
3105.231745384875
 21
1029.51387142766
 31
0.0
 11
3105.359027114042
 21
1029.569272826975
 31
0.0
 11
3105.536719544166
 21
1029.623480453127
 31
0.0
 11
3105.762695013666
 21
1029.674959066249
 31
0.0
 11
3106.033249036445
 21
1029.722232072299
 31
0.0
 11
3106.341463125563
 21
1029.763648595988
 31
0.0
 11
3106.678498710239
 21
1029.798435514825
 31
0.0
 11
3107.034565319515
 21
1029.825941686914
 31
0.0
 11
3107.581896717771
 21
1029.852829642456
 31
0.0
 11
3108.117653574426
 21
1029.863627728603
 31
0.0
  0
SPLINE
  5
233
330
1F
100
AcDbEntity
  8
0
  6
Continuous
 62
     2
100
AcDbSpline
210
0.0
220
0.0
230
1.0
 70
     8
 71
     3
 72
    11
 73
     7
 74
     5
 42
0.0000000001
 43
0.0000000001
 44
0.00000001
 40
0.0
 40
0.0
 40
0.0
 40
0.0
 40
1.700136055933077
 40
3.400272111866153
 40
5.100407417991351
 40
6.800542724116891
 40
6.800542724116891
 40
6.800542724116891
 40
6.800542724116891
 10
3347.303990714402
 20
1010.485716660426
 30
0.0
 10
3347.303991245057
 20
1011.05242867907
 30
0.0
 10
3347.303992306367
 20
1012.185852716358
 30
0.0
 10
3347.303995640272
 20
1013.885988522354
 30
0.0
 10
3347.303992006422
 20
1015.586124078414
 30
0.0
 10
3347.303990745148
 20
1016.71954761583
 30
0.0
 10
3347.303990114511
 20
1017.286259384538
 30
0.0
 11
3347.303990714402
 21
1010.485716660426
 31
0.0
 11
3347.30399259669
 21
1012.185852716358
 31
0.0
 11
3347.303994478979
 21
1013.88598877229
 31
0.0
 11
3347.303992296745
 21
1015.586124078414
 31
0.0
 11
3347.303990114511
 21
1017.286259384538
 31
0.0
  0
MTEXT
  5
235
330
1F
100
AcDbEntity
  8
Symbole_ISO_
 62
     7
100
AcDbMText
 10
3144.504913495525
 20
745.9672728815447
 30
0.0
 40
6.9999998807907
 41
0.0
 71
     5
 72
     1
  1
G. Merafina
  7
CONVERTER_12
 73
     1
 44
0.75727272727273
  0
MTEXT
  5
236
330
1F
100
AcDbEntity
  8
Symbole_ISO_
 62
     7
100
AcDbMText
 10
3144.504913495525
 20
761.6672728815447
 30
0.0
 40
6.9999998807907
 41
0.0
 71
     5
 72
     1
  1
31.10.2012
  7
CONVERTER_12
 73
     1
 44
0.75727272727273
  0
MTEXT
  5
237
330
1F
100
AcDbEntity
  8
Symbole_ISO_
 62
     7
100
AcDbMText
 10
3404.579913495525
 20
762.9172728815447
 30
0.0
 40
5.0
 41
0.0
 71
     5
 72
     1
  1
Scale
  7
CONVERTER_11
 73
     1
 44
0.75727272727273
  0
MTEXT
  5
238
330
1F
100
AcDbEntity
  8
Symbole_ISO_
 62
     7
100
AcDbMText
 10
3114.704913495525
 20
746.3672728815447
 30
0.0
 40
5.0
 41
0.0
 71
     4
 72
     1
  1
Sign.
  7
CONVERTER_11
 73
     1
 44
0.75727272727273
  0
MTEXT
  5
239
330
1F
100
AcDbEntity
  8
Symbole_ISO_
 62
     7
100
AcDbMText
 10
3114.704913495525
 20
761.6672728815447
 30
0.0
 40
5.0
 41
0.0
 71
     4
 72
     1
  1
Date
  7
CONVERTER_11
 73
     1
 44
0.75727272727273
  0
TEXT
  5
23B
330
1F
100
AcDbEntity
  8
Symbole_ISO_
 62
     7
100
AcDbText
 10
3173.504913495525
 20
743.3672728517427
 30
0.0
 40
8.00000011920928
  1
Dust cover for transportation for 16 poles housings
 41
0.89999994635582
  7
CONVERTER_13
100
AcDbText
  0
TEXT
  5
23C
330
1F
100
AcDbEntity
  8
Symbole_ISO_
 62
     7
100
AcDbText
 10
3399.210370637199
 20
746.117272881545
 30
0.0
 40
10.0
  1
1:2
 41
0.67499998211861
  7
CONVERTER_11
100
AcDbText
  0
MTEXT
  5
23E
330
1F
100
AcDbEntity
  8
1
 62
     4
100
AcDbMText
 10
3138.732688218588
 20
798.69250149546
 30
0.0
 40
14.0
 41
0.0
 71
     2
 72
     1
  1
 
  7
CONVERTER_14
 73
     1
 44
1.32052821128451
  0
MTEXT
  5
23F
330
1F
100
AcDbEntity
  8
1
 62
     4
100
AcDbMText
 10
3179.724619776766
 20
825.0441315662415
 30
0.0
 40
14.0
 41
0.0
 71
     2
 72
     1
  1
 
  7
CONVERTER_14
 73
     1
 44
1.32052821128451
  0
TEXT
  5
240
330
1F
100
AcDbEntity
  8
Symbole_ISO_
 62
     7
100
AcDbText
 10
3173.000701052775
 20
757.694753130188
 30
0.0
 40
8.00000011920928
  1
CGCP 16 FX
 41
0.89999994635582
  7
CONVERTER_13
100
AcDbText
  0
DIMENSION
  5
24D
330
1F
100
AcDbEntity
  8
1
100
AcDbDimension
  2
*D2
 10
3300.743911530793
 20
983.785989520138
 30
0.0
 11
3300.743911530793
 21
1013.885103957024
 31
0.0
 70
    32
  1
<>
 71
     5
 42
-1.0
 53
90.0
  3
ME10_DIM_10
100
AcDbAlignedDimension
 13
3316.199298947226
 23
1043.98421839391
 33
0.0
 14
3316.199298947226
 24
983.7859895201378
 34
0.0
 50
90.0
100
AcDbRotatedDimension
  0
DIMENSION
  5
259
330
1F
100
AcDbEntity
  8
1
100
AcDbDimension
  2
*D3
 10
3078.585852006927
 20
969.3381435466197
 30
0.0
 11
3162.827166442798
 21
969.3381435466197
 31
0.0
 70
    32
  1
<>
 71
     5
 42
-1.0
 53
0.00013888888889
  3
ME10_DIM_11
100
AcDbAlignedDimension
 13
3247.068480878669
 23
1029.984218393908
 33
0.0
 14
3078.585852006927
 24
991.7859895201358
 34
0.0
100
AcDbRotatedDimension
  0
DIMENSION
  5
265
330
1F
100
AcDbEntity
  8
1
100
AcDbDimension
  2
*D4
 10
3262.086480878669
 20
858.9450183928494
 30
0.0
 11
3262.086480878669
 21
875.945018411757
 31
0.0
 70
    32
  1
<>
 71
     5
 42
-1.0
 53
90.0
  3
ME10_DIM_12
100
AcDbAlignedDimension
 13
3239.086480878669
 23
892.9450184306645
 33
0.0
 14
3217.520400422327
 24
858.9450183928494
 34
0.0
 50
90.0
100
AcDbRotatedDimension
  0
HATCH
  5
266
330
1F
100
AcDbEntity
  8
Schraffur
  6
Continuous
 62
     7
100
AcDbHatch
 10
0.0
 20
0.0
 30
0.0
210
0.0
220
0.0
230
1.0
  2
SOLID
 70
     1
 71
     1
 91
        1
 92
        1
 93
        4
 72
     1
 10
3436.215965613892
 20
756.9990402773329
 11
3436.215965613892
 21
750.3859627135865
 72
     2
 10
3435.549298947226
 20
750.3859627135865
 40
0.6666666666669698
 50
0.0
 51
180.0
 73
     0
 72
     1
 10
3434.882632280559
 20
750.3859627135865
 11
3434.882632280559
 21
756.9990402773329
 72
     2
 10
3435.549298947226
 20
756.9990402773329
 40
0.6666666666660603
 50
180.0
 51
360.0
 73
     0
 97
        4
330
192
330
1F9
330
193
330
1FA
 75
     0
 76
     1
 98
        1
 10
0.0
 20
0.0
  0
HATCH
  5
267
330
1F
100
AcDbEntity
  8
Schraffur
  6
Continuous
 62
     7
100
AcDbHatch
 10
0.0
 20
0.0
 30
0.0
210
0.0
220
0.0
230
1.0
  2
SOLID
 70
     1
 71
     1
 91
        1
 92
        1
 93
        7
 72
     1
 10
3438.882634298166
 20
749.2325426275213
 11
3438.882634298166
 21
758.5791780434059
 72
     2
 10
3438.215967631498
 20
758.5791780434059
 40
0.6666666666678793
 50
0.0
 51
180.0
 73
     1
 72
     1
 10
3437.549300964832
 20
758.5791780434059
 11
3437.549300964832
 21
749.2325451711837
 72
     2
 10
3438.882638702288
 20
749.2325451711837
 40
1.333337737456077
 50
180.0
 51
240.0183606311383
 73
     1
 72
     1
 10
3438.216339896796
 20
748.0776272416643
 11
3442.55161030614
 21
745.576509697812
 72
     2
 10
3442.884758608466
 20
746.1539667551777
 40
0.6666666666666282
 50
240.0183606311663
 51
420.0183606312679
 73
     1
 72
     1
 10
3443.217906910791
 20
746.7314238125435
 11
3438.882634298166
 21
749.2325426275213
 97
        7
330
1F8
330
190
330
1F7
330
18F
330
1F6
330
18E
330
191
 75
     0
 76
     1
 98
        1
 10
0.0
 20
0.0
  0
HATCH
  5
268
330
1F
100
AcDbEntity
  8
Schraffur
  6
Continuous
 62
     7
100
AcDbHatch
 10
0.0
 20
0.0
 30
0.0
210
0.0
220
0.0
230
1.0
  2
SOLID
 70
     1
 71
     1
 91
        1
 92
        1
 93
       13
 72
     2
 10
3440.745908864695
 20
760.1966174288215
 40
0.5299324249509441
 50
29.9999999999662
 51
180.0
 73
     1
 72
     1
 10
3440.215976439743
 20
760.1966174288215
 11
3440.215976439745
 21
750.3859627135865
 72
     2
 10
3440.882643106411
 20
750.3859627135865
 40
0.6666666666656056
 50
180.0
 51
360.0
 73
     1
 72
     1
 10
3441.549309773077
 20
750.3859627135865
 11
3441.549309773077
 21
757.1982933399529
 72
     1
 10
3441.549309773077
 20
757.1982933399529
 11
3443.260623812631
 21
754.2342104757415
 72
     2
 10
3443.549298947226
 20
754.4008771424081
 40
0.333333333333473
 50
209.9999999999786
 51
329.9999999999432
 73
     1
 72
     1
 10
3443.83797408182
 20
754.2342104757415
 11
3445.549288121374
 21
757.1982933399529
 72
     1
 10
3445.549288121374
 20
757.1982933399529
 11
3445.549288121374
 21
747.2673583273709
 72
     2
 10
3446.21595478804
 20
747.2673583273709
 40
0.6666666666660603
 50
180.0
 51
360.0
 73
     1
 72
     1
 10
3446.882621454708
 20
747.2673583273709
 11
3446.882621454708
 21
760.1966174288214
 72
     2
 10
3446.352689029756
 20
760.1966174288214
 40
0.5299324249517667
 50
0.0
 51
149.9999999999986
 73
     1
 72
     1
 10
3445.89375408746
 20
760.4615836412967
 11
3443.549298947226
 21
756.4008682223451
 72
     1
 10
3443.549298947226
 20
756.4008682223451
 11
3441.204843806992
 21
760.4615836412967
 97
       13
330
18C
330
1F5
330
18B
330
1F4
330
18A
330
189
330
1F3
330
188
330
187
330
1F2
330
186
330
1F1
330
18D
 75
     0
 76
     1
 98
        1
 10
0.0
 20
0.0
  0
HATCH
  5
269
330
1F
100
AcDbEntity
  8
1
  6
Continuous
 62
     7
100
AcDbHatch
 10
0.0
 20
0.0
 30
0.0
210
0.0
220
0.0
230
1.0
  2
SOLID
 70
     1
 71
     1
 91
        1
 92
        1
 93
       14
 72
     2
 10
3448.882630262953
 20
758.5791780434054
 40
0.6666666666669129
 50
60.01836063122456
 51
179.9999999999511
 73
     1
 72
     1
 10
3448.215963596286
 20
758.5791780434059
 11
3448.215963596286
 21
748.8058249475135
 72
     2
 10
3448.882630262953
 20
748.8058249475141
 40
0.666666666666913
 50
180.0000000000488
 51
299.9816393687755
 73
     1
 72
     1
 10
3449.215778565279
 20
748.2283678901478
 11
3451.954684026472
 21
749.8085056562207
 72
     2
 10
3451.621535724146
 20
750.3859627135864
 40
0.6666666666665145
 50
299.9816393688386
 51
479.981639368795
 73
     1
 72
     1
 10
3451.28838742182
 20
750.9634197709523
 11
3449.54929692962
 21
749.9600983331449
 72
     1
 10
3449.54929692962
 20
749.9600983331449
 11
3449.54929692962
 21
753.0258348287929
 72
     1
 10
3449.54929692962
 20
753.0258348287929
 11
3451.621535724146
 21
753.0258348287929
 72
     2
 10
3451.621535724146
 20
753.6925014954597
 40
0.6666666666667993
 50
270.0
 51
450.0
 73
     1
 72
     1
 10
3451.621535724146
 20
754.3591681621265
 11
3449.54929692962
 21
754.3591681621265
 72
     1
 10
3449.54929692962
 20
754.3591681621265
 11
3449.54929692962
 21
757.4249046577745
 72
     1
 10
3449.54929692962
 20
757.4249046577745
 11
3451.28838742182
 21
756.4215832199671
 72
     2
 10
3451.621535724146
 20
756.999040277333
 40
0.6666666666665145
 50
240.018360631205
 51
420.0183606311614
 73
     1
 72
     1
 10
3451.954684026472
 20
757.5764973346987
 11
3449.215778565279
 21
759.1566351007717
 97
       14
330
1DF
330
171
330
1E0
330
170
330
1EB
330
16F
330
16E
330
16D
330
1EA
330
16C
330
16B
330
16A
330
1E9
330
169
 75
     0
 76
     1
 98
        1
 10
0.0
 20
0.0
  0
ENDSEC
  0
SECTION
  2
OBJECTS
  0
DICTIONARY
  5
C
330
0
100
AcDbDictionary
281
     1
  3
ACAD_GROUP
350
D
  3
ACAD_LAYOUT
350
1A
  3
ACAD_MATERIAL
350
3B
  3
ACAD_MLEADERSTYLE
350
26C
  3
ACAD_MLINESTYLE
350
17
  3
ACAD_PLOTSETTINGS
350
19
  3
ACAD_PLOTSTYLENAME
350
E
  3
ACAD_SCALELIST
350
4D
  3
ACAD_VISUALSTYLE
350
2A
  3
AcDbVariableDictionary
350
26A
  0
DICTIONARY
  5
D
102
{ACAD_REACTORS
330
C
102
}
330
C
100
AcDbDictionary
281
     1
  0
DICTIONARY
  5
1A
102
{ACAD_REACTORS
330
C
102
}
330
C
100
AcDbDictionary
281
     1
  3
Layout1
350
1E
  3
Layout2
350
26
  3
Model
350
22
  0
DICTIONARY
  5
3B
102
{ACAD_REACTORS
330
C
102
}
330
C
100
AcDbDictionary
281
     1
  3
ByBlock
350
3D
  3
ByLayer
350
3C
  3
Global
350
3E
  0
DICTIONARY
  5
26C
102
{ACAD_REACTORS
330
C
102
}
330
C
100
AcDbDictionary
281
     1
  0
DICTIONARY
  5
17
102
{ACAD_REACTORS
330
C
102
}
330
C
100
AcDbDictionary
281
     1
  3
Standard
350
18
  0
DICTIONARY
  5
19
102
{ACAD_REACTORS
330
C
102
}
330
C
100
AcDbDictionary
281
     1
  0
ACDBDICTIONARYWDFLT
  5
E
102
{ACAD_REACTORS
330
C
102
}
330
C
100
AcDbDictionary
281
     1
  3
Normal
350
F
100
AcDbDictionaryWithDefault
340
F
  0
DICTIONARY
  5
4D
102
{ACAD_REACTORS
330
C
102
}
330
C
100
AcDbDictionary
281
     1
  3
A0
350
4E
  3
A1
350
4F
  3
A2
350
50
  3
A3
350
51
  3
A4
350
52
  3
A5
350
53
  3
A6
350
54
  3
A7
350
55
  3
A8
350
56
  3
A9
350
57
  3
B0
350
58
  3
B1
350
59
  3
B2
350
5A
  3
B3
350
5B
  3
B4
350
5C
  3
B5
350
5D
  3
B6
350
5E
  3
B7
350
5F
  3
B8
350
60
  3
B9
350
61
  3
C0
350
62
  3
C1
350
63
  3
C2
350
64
  3
C3
350
65
  3
C4
350
66
  3
C5
350
67
  3
C6
350
68
  3
C7
350
69
  3
C8
350
6A
  3
C9
350
6B
  3
D0
350
6C
  3
D1
350
6D
  3
D2
350
6E
  0
DICTIONARY
  5
2A
102
{ACAD_REACTORS
330
C
102
}
330
C
100
AcDbDictionary
281
     1
  3
2dWireframe
350
2F
  3
3D Hidden
350
31
  3
3dWireframe
350
30
  3
Basic
350
32
  3
Brighten
350
36
  3
ColorChange
350
3A
  3
Conceptual
350
34
  3
Dim
350
35
  3
Facepattern
350
39
  3
Flat
350
2B
  3
FlatWithEdges
350
2C
  3
Gouraud
350
2D
  3
GouraudWithEdges
350
2E
  3
Linepattern
350
38
  3
Realistic
350
33
  3
Thicken
350
37
  0
DICTIONARY
  5
26A
102
{ACAD_REACTORS
330
C
102
}
330
C
100
AcDbDictionary
281
     1
  3
CANNOSCALE
350
26D
  3
DIMASSOC
350
26E
  3
HIDETEXT
350
26F
  0
LAYOUT
  5
1E
102
{ACAD_REACTORS
330
1A
102
}
330
1A
100
AcDbPlotSettings
  1

  2
none_device
  4

  6

 40
0.0
 41
0.0
 42
0.0
 43
0.0
 44
0.0
 45
0.0
 46
0.0
 47
0.0
 48
0.0
 49
0.0
140
0.0
141
0.0
142
1.0
143
1.0
 70
   688
 72
     0
 73
     0
 74
     5
  7

 75
    16
147
1.0
148
0.0
149
0.0
100
AcDbLayout
  1
Layout1
 70
     1
 71
     1
 10
0.0
 20
0.0
 11
12.0
 21
9.0
 12
0.0
 22
0.0
 32
0.0
 14
1.00000000000000E+20
 24
1.00000000000000E+20
 34
1.00000000000000E+20
 15
-1.00000000000000E+20
 25
-1.00000000000000E+20
 35
-1.00000000000000E+20
146
0.0
 13
0.0
 23
0.0
 33
0.0
 16
1.0
 26
0.0
 36
0.0
 17
0.0
 27
1.0
 37
0.0
 76
     0
330
1B
  0
LAYOUT
  5
26
102
{ACAD_REACTORS
330
1A
102
}
330
1A
100
AcDbPlotSettings
  1

  2
none_device
  4

  6

 40
0.0
 41
0.0
 42
0.0
 43
0.0
 44
0.0
 45
0.0
 46
0.0
 47
0.0
 48
0.0
 49
0.0
140
0.0
141
0.0
142
1.0
143
1.0
 70
   688
 72
     0
 73
     0
 74
     5
  7

 75
    16
147
1.0
148
0.0
149
0.0
100
AcDbLayout
  1
Layout2
 70
     1
 71
     2
 10
0.0
 20
0.0
 11
0.0
 21
0.0
 12
0.0
 22
0.0
 32
0.0
 14
0.0
 24
0.0
 34
0.0
 15
0.0
 25
0.0
 35
0.0
146
0.0
 13
0.0
 23
0.0
 33
0.0
 16
1.0
 26
0.0
 36
0.0
 17
0.0
 27
1.0
 37
0.0
 76
     0
330
23
  0
LAYOUT
  5
22
102
{ACAD_REACTORS
330
1A
102
}
330
1A
100
AcDbPlotSettings
  1

  2
none_device
  4

  6

 40
0.0
 41
0.0
 42
0.0
 43
0.0
 44
0.0
 45
0.0
 46
0.0
 47
0.0
 48
0.0
 49
0.0
140
0.0
141
0.0
142
1.0
143
1.0
 70
  1712
 72
     0
 73
     0
 74
     0
  7

 75
     0
147
1.0
148
0.0
149
0.0
100
AcDbLayout
  1
Model
 70
     1
 71
     0
 10
0.0
 20
0.0
 11
12.0
 21
9.0
 12
0.0
 22
0.0
 32
0.0
 14
2911.699298947226
 24
738.1925014954597
 34
0.0
 15
3466.699298947226
 25
1139.19250149546
 35
0.0
146
0.0
 13
0.0
 23
0.0
 33
0.0
 16
1.0
 26
0.0
 36
0.0
 17
0.0
 27
1.0
 37
0.0
 76
     0
330
1F
331
29
  0
MATERIAL
  5
3D
102
{ACAD_REACTORS
330
3B
102
}
102
{ACAD_XDICTIONARY
360
292
102
}
330
3B
100
AcDbMaterial
  1
ByBlock
  0
MATERIAL
  5
3C
102
{ACAD_REACTORS
330
3B
102
}
102
{ACAD_XDICTIONARY
360
290
102
}
330
3B
100
AcDbMaterial
  1
ByLayer
  0
MATERIAL
  5
3E
102
{ACAD_REACTORS
330
3B
102
}
102
{ACAD_XDICTIONARY
360
294
102
}
330
3B
100
AcDbMaterial
  1
Global
  0
MLINESTYLE
  5
18
102
{ACAD_REACTORS
330
17
102
}
330
17
100
AcDbMlineStyle
  2
Standard
 70
     0
  3

 62
   256
 51
90.0
 52
90.0
 71
     2
 49
0.5
 62
   256
  6
BYLAYER
 49
-0.5
 62
   256
  6
BYLAYER
  0
ACDBPLACEHOLDER
  5
F
102
{ACAD_REACTORS
330
E
102
}
330
E
  0
SCALE
  5
4E
102
{ACAD_REACTORS
330
4D
102
}
330
4D
100
AcDbScale
 70
     0
300
1:1
140
1.0
141
1.0
290
     1
  0
SCALE
  5
4F
102
{ACAD_REACTORS
330
4D
102
}
330
4D
100
AcDbScale
 70
     0
300
1:2
140
1.0
141
2.0
290
     0
  0
SCALE
  5
50
102
{ACAD_REACTORS
330
4D
102
}
330
4D
100
AcDbScale
 70
     0
300
1:4
140
1.0
141
4.0
290
     0
  0
SCALE
  5
51
102
{ACAD_REACTORS
330
4D
102
}
330
4D
100
AcDbScale
 70
     0
300
1:5
140
1.0
141
5.0
290
     0
  0
SCALE
  5
52
102
{ACAD_REACTORS
330
4D
102
}
330
4D
100
AcDbScale
 70
     0
300
1:8
140
1.0
141
8.0
290
     0
  0
SCALE
  5
53
102
{ACAD_REACTORS
330
4D
102
}
330
4D
100
AcDbScale
 70
     0
300
1:10
140
1.0
141
10.0
290
     0
  0
SCALE
  5
54
102
{ACAD_REACTORS
330
4D
102
}
330
4D
100
AcDbScale
 70
     0
300
1:16
140
1.0
141
16.0
290
     0
  0
SCALE
  5
55
102
{ACAD_REACTORS
330
4D
102
}
330
4D
100
AcDbScale
 70
     0
300
1:20
140
1.0
141
20.0
290
     0
  0
SCALE
  5
56
102
{ACAD_REACTORS
330
4D
102
}
330
4D
100
AcDbScale
 70
     0
300
1:30
140
1.0
141
30.0
290
     0
  0
SCALE
  5
57
102
{ACAD_REACTORS
330
4D
102
}
330
4D
100
AcDbScale
 70
     0
300
1:40
140
1.0
141
40.0
290
     0
  0
SCALE
  5
58
102
{ACAD_REACTORS
330
4D
102
}
330
4D
100
AcDbScale
 70
     0
300
1:50
140
1.0
141
50.0
290
     0
  0
SCALE
  5
59
102
{ACAD_REACTORS
330
4D
102
}
330
4D
100
AcDbScale
 70
     0
300
1:100
140
1.0
141
100.0
290
     0
  0
SCALE
  5
5A
102
{ACAD_REACTORS
330
4D
102
}
330
4D
100
AcDbScale
 70
     0
300
2:1
140
2.0
141
1.0
290
     0
  0
SCALE
  5
5B
102
{ACAD_REACTORS
330
4D
102
}
330
4D
100
AcDbScale
 70
     0
300
4:1
140
4.0
141
1.0
290
     0
  0
SCALE
  5
5C
102
{ACAD_REACTORS
330
4D
102
}
330
4D
100
AcDbScale
 70
     0
300
8:1
140
8.0
141
1.0
290
     0
  0
SCALE
  5
5D
102
{ACAD_REACTORS
330
4D
102
}
330
4D
100
AcDbScale
 70
     0
300
10:1
140
10.0
141
1.0
290
     0
  0
SCALE
  5
5E
102
{ACAD_REACTORS
330
4D
102
}
330
4D
100
AcDbScale
 70
     0
300
100:1
140
100.0
141
1.0
290
     0
  0
SCALE
  5
5F
102
{ACAD_REACTORS
330
4D
102
}
330
4D
100
AcDbScale
 70
     0
300
1/128" = 1'-0"
140
0.0078125
141
12.0
290
     0
  0
SCALE
  5
60
102
{ACAD_REACTORS
330
4D
102
}
330
4D
100
AcDbScale
 70
     0
300
1/64" = 1'-0"
140
0.015625
141
12.0
290
     0
  0
SCALE
  5
61
102
{ACAD_REACTORS
330
4D
102
}
330
4D
100
AcDbScale
 70
     0
300
1/32" = 1'-0"
140
0.03125
141
12.0
290
     0
  0
SCALE
  5
62
102
{ACAD_REACTORS
330
4D
102
}
330
4D
100
AcDbScale
 70
     0
300
1/16" = 1'-0"
140
0.0625
141
12.0
290
     0
  0
SCALE
  5
63
102
{ACAD_REACTORS
330
4D
102
}
330
4D
100
AcDbScale
 70
     0
300
3/32" = 1'-0"
140
0.09375
141
12.0
290
     0
  0
SCALE
  5
64
102
{ACAD_REACTORS
330
4D
102
}
330
4D
100
AcDbScale
 70
     0
300
1/8" = 1'-0"
140
0.125
141
12.0
290
     0
  0
SCALE
  5
65
102
{ACAD_REACTORS
330
4D
102
}
330
4D
100
AcDbScale
 70
     0
300
3/16" = 1'-0"
140
0.1875
141
12.0
290
     0
  0
SCALE
  5
66
102
{ACAD_REACTORS
330
4D
102
}
330
4D
100
AcDbScale
 70
     0
300
1/4" = 1'-0"
140
0.25
141
12.0
290
     0
  0
SCALE
  5
67
102
{ACAD_REACTORS
330
4D
102
}
330
4D
100
AcDbScale
 70
     0
300
3/8" = 1'-0"
140
0.375
141
12.0
290
     0
  0
SCALE
  5
68
102
{ACAD_REACTORS
330
4D
102
}
330
4D
100
AcDbScale
 70
     0
300
1/2" = 1'-0"
140
0.5
141
12.0
290
     0
  0
SCALE
  5
69
102
{ACAD_REACTORS
330
4D
102
}
330
4D
100
AcDbScale
 70
     0
300
3/4" = 1'-0"
140
0.75
141
12.0
290
     0
  0
SCALE
  5
6A
102
{ACAD_REACTORS
330
4D
102
}
330
4D
100
AcDbScale
 70
     0
300
1" = 1'-0"
140
1.0
141
12.0
290
     0
  0
SCALE
  5
6B
102
{ACAD_REACTORS
330
4D
102
}
330
4D
100
AcDbScale
 70
     0
300
1-1/2" = 1'-0"
140
1.5
141
12.0
290
     0
  0
SCALE
  5
6C
102
{ACAD_REACTORS
330
4D
102
}
330
4D
100
AcDbScale
 70
     0
300
3" = 1'-0"
140
3.0
141
12.0
290
     0
  0
SCALE
  5
6D
102
{ACAD_REACTORS
330
4D
102
}
330
4D
100
AcDbScale
 70
     0
300
6" = 1'-0"
140
6.0
141
12.0
290
     0
  0
SCALE
  5
6E
102
{ACAD_REACTORS
330
4D
102
}
330
4D
100
AcDbScale
 70
     0
300
1'-0" = 1'-0"
140
12.0
141
12.0
290
     0
  0
VISUALSTYLE
  5
2F
102
{ACAD_REACTORS
330
2A
102
}
102
{ACAD_XDICTIONARY
360
278
102
}
330
2A
100
AcDbVisualStyle
  2
2dWireframe
 70
     4
 71
     0
 72
     2
 73
     0
 90
        0
 40
-0.6
 41
-30.0
 62
     5
 63
     7
 74
     1
 91
        4
 64
     7
 65
   257
 75
     1
175
     1
 42
1.0
 92
        0
 66
   257
 43
1.0
 76
     1
 77
     6
 78
     2
 67
     7
 79
     5
170
     0
171
     0
290
     0
174
     0
 93
        1
 44
0.0
173
     0
291
     0
 45
0.0
1001
ACAD
1000
AcDbSavedByObjectVersion
1070
     0
  0
VISUALSTYLE
  5
31
102
{ACAD_REACTORS
330
2A
102
}
102
{ACAD_XDICTIONARY
360
27C
102
}
330
2A
100
AcDbVisualStyle
  2
3D Hidden
 70
     6
 71
     1
 72
     2
 73
     2
 90
        0
 40
-0.6
 41
-30.0
 62
     5
 63
     7
 74
     2
 91
        2
 64
     7
 65
   257
 75
     2
175
     1
 42
40.0
 92
        0
 66
   257
 43
1.0
 76
     1
 77
     6
 78
     2
 67
     7
 79
     3
170
     0
171
     0
290
     0
174
     0
 93
        1
 44
0.0
173
     0
291
     0
 45
0.0
1001
ACAD
1000
AcDbSavedByObjectVersion
1070
     0
  0
VISUALSTYLE
  5
30
102
{ACAD_REACTORS
330
2A
102
}
102
{ACAD_XDICTIONARY
360
27A
102
}
330
2A
100
AcDbVisualStyle
  2
3dWireframe
 70
     5
 71
     0
 72
     2
 73
     0
 90
        0
 40
-0.6
 41
-30.0
 62
     5
 63
     7
 74
     1
 91
        4
 64
     7
 65
   257
 75
     1
175
     1
 42
1.0
 92
        0
 66
   257
 43
1.0
 76
     1
 77
     6
 78
     2
 67
     7
 79
     5
170
     0
171
     0
290
     0
174
     0
 93
        1
 44
0.0
173
     0
291
     0
 45
0.0
1001
ACAD
1000
AcDbSavedByObjectVersion
1070
     0
  0
VISUALSTYLE
  5
32
102
{ACAD_REACTORS
330
2A
102
}
102
{ACAD_XDICTIONARY
360
27E
102
}
330
2A
100
AcDbVisualStyle
  2
Basic
 70
     7
 71
     1
 72
     0
 73
     1
 90
        0
 40
-0.6
 41
-30.0
 62
     5
 63
     7
 74
     0
 91
        4
 64
     7
 65
   257
 75
     1
175
     1
 42
1.0
 92
        8
 66
     7
 43
1.0
 76
     1
 77
     6
 78
     2
 67
     7
 79
     5
170
     0
171
     0
290
     0
174
     0
 93
        1
 44
0.0
173
     0
291
     1
 45
0.0
1001
ACAD
1000
AcDbSavedByObjectVersion
1070
     0
  0
VISUALSTYLE
  5
36
102
{ACAD_REACTORS
330
2A
102
}
102
{ACAD_XDICTIONARY
360
286
102
}
330
2A
100
AcDbVisualStyle
  2
Brighten
 70
    12
 71
     2
 72
     2
 73
     0
 90
        0
 40
-0.6
 41
-30.0
 62
     5
 63
     7
 74
     1
 91
        4
 64
     7
 65
   257
 75
     1
175
     1
 42
1.0
 92
        8
 66
     7
 43
1.0
 76
     1
 77
     6
 78
     2
 67
     7
 79
     5
170
     0
171
     0
290
     0
174
     0
 93
        1
 44
50.0
173
     0
291
     1
 45
0.0
1001
ACAD
1000
AcDbSavedByObjectVersion
1070
     0
  0
VISUALSTYLE
  5
3A
102
{ACAD_REACTORS
330
2A
102
}
102
{ACAD_XDICTIONARY
360
28E
102
}
330
2A
100
AcDbVisualStyle
  2
ColorChange
 70
    16
 71
     2
 72
     2
 73
     3
 90
        0
 40
-0.6
 41
-30.0
 62
     5
 63
     8
 74
     1
 91
        4
 64
     7
 65
   257
 75
     1
175
     1
 42
1.0
 92
        8
 66
     8
 43
1.0
 76
     1
 77
     6
 78
     2
 67
     7
 79
     5
170
     0
171
     0
290
     0
174
     0
 93
        1
 44
0.0
173
     0
291
     1
 45
0.0
1001
ACAD
1000
AcDbSavedByObjectVersion
1070
     0
  0
VISUALSTYLE
  5
34
102
{ACAD_REACTORS
330
2A
102
}
102
{ACAD_XDICTIONARY
360
282
102
}
330
2A
100
AcDbVisualStyle
  2
Conceptual
 70
     9
 71
     3
 72
     2
 73
     0
 90
        0
 40
-0.6
 41
-30.0
 62
     5
 63
     7
 74
     2
 91
        2
 64
     7
 65
   257
 75
     1
175
     1
 42
40.0
 92
        8
 66
     7
 43
1.0
 76
     1
 77
     6
 78
     2
 67
     7
 79
     3
170
     0
171
     0
290
     0
174
     0
 93
        1
 44
0.0
173
     0
291
     0
 45
0.0
1001
ACAD
1000
AcDbSavedByObjectVersion
1070
     0
  0
VISUALSTYLE
  5
35
102
{ACAD_REACTORS
330
2A
102
}
102
{ACAD_XDICTIONARY
360
284
102
}
330
2A
100
AcDbVisualStyle
  2
Dim
 70
    11
 71
     2
 72
     2
 73
     0
 90
        0
 40
-0.6
 41
-30.0
 62
     5
 63
     7
 74
     1
 91
        4
 64
     7
 65
   257
 75
     1
175
     1
 42
1.0
 92
        8
 66
     7
 43
1.0
 76
     1
 77
     6
 78
     2
 67
     7
 79
     5
170
     0
171
     0
290
     0
174
     0
 93
        1
 44
-50.0
173
     0
291
     1
 45
0.0
1001
ACAD
1000
AcDbSavedByObjectVersion
1070
     0
  0
VISUALSTYLE
  5
39
102
{ACAD_REACTORS
330
2A
102
}
102
{ACAD_XDICTIONARY
360
28C
102
}
330
2A
100
AcDbVisualStyle
  2
Facepattern
 70
    15
 71
     2
 72
     2
 73
     0
 90
        0
 40
-0.6
 41
-30.0
 62
     5
 63
     7
 74
     1
 91
        4
 64
     7
 65
   257
 75
     1
175
     1
 42
1.0
 92
        8
 66
     7
 43
1.0
 76
     1
 77
     6
 78
     2
 67
     7
 79
     5
170
     0
171
     0
290
     0
174
     0
 93
        1
 44
0.0
173
     0
291
     1
 45
0.0
1001
ACAD
1000
AcDbSavedByObjectVersion
1070
     0
  0
VISUALSTYLE
  5
2B
102
{ACAD_REACTORS
330
2A
102
}
102
{ACAD_XDICTIONARY
360
270
102
}
330
2A
100
AcDbVisualStyle
  2
Flat
 70
     0
 71
     2
 72
     1
 73
     1
 90
        2
 40
-0.6
 41
30.0
 62
     5
 63
     7
 74
     0
 91
        4
 64
     7
 65
   257
 75
     1
175
     1
 42
1.0
 92
        8
 66
     7
 43
1.0
 76
     1
 77
     6
 78
     2
 67
     7
 79
     5
170
     0
171
     0
290
     0
174
     0
 93
       13
 44
0.0
173
     0
291
     1
 45
0.0
1001
ACAD
1000
AcDbSavedByObjectVersion
1070
     0
  0
VISUALSTYLE
  5
2C
102
{ACAD_REACTORS
330
2A
102
}
102
{ACAD_XDICTIONARY
360
272
102
}
330
2A
100
AcDbVisualStyle
  2
FlatWithEdges
 70
     1
 71
     2
 72
     1
 73
     1
 90
        2
 40
-0.6
 41
30.0
 62
     5
 63
     7
 74
     1
 91
        4
 64
     7
 65
   257
 75
     1
175
     1
 42
1.0
 92
        0
 66
   257
 43
1.0
 76
     1
 77
     6
 78
     2
 67
     7
 79
     5
170
     0
171
     0
290
     0
174
     0
 93
       13
 44
0.0
173
     0
291
     1
 45
0.0
1001
ACAD
1000
AcDbSavedByObjectVersion
1070
     0
  0
VISUALSTYLE
  5
2D
102
{ACAD_REACTORS
330
2A
102
}
102
{ACAD_XDICTIONARY
360
274
102
}
330
2A
100
AcDbVisualStyle
  2
Gouraud
 70
     2
 71
     2
 72
     2
 73
     1
 90
        2
 40
-0.6
 41
30.0
 62
     5
 63
     7
 74
     0
 91
        4
 64
     7
 65
   257
 75
     1
175
     1
 42
1.0
 92
        0
 66
     7
 43
1.0
 76
     1
 77
     6
 78
     2
 67
     7
 79
     5
170
     0
171
     0
290
     0
174
     0
 93
       13
 44
0.0
173
     0
291
     1
 45
0.0
1001
ACAD
1000
AcDbSavedByObjectVersion
1070
     0
  0
VISUALSTYLE
  5
2E
102
{ACAD_REACTORS
330
2A
102
}
102
{ACAD_XDICTIONARY
360
276
102
}
330
2A
100
AcDbVisualStyle
  2
GouraudWithEdges
 70
     3
 71
     2
 72
     2
 73
     1
 90
        2
 40
-0.6
 41
30.0
 62
     5
 63
     7
 74
     1
 91
        4
 64
     7
 65
   257
 75
     1
175
     1
 42
1.0
 92
        0
 66
   257
 43
1.0
 76
     1
 77
     6
 78
     2
 67
     7
 79
     5
170
     0
171
     0
290
     0
174
     0
 93
       13
 44
0.0
173
     0
291
     1
 45
0.0
1001
ACAD
1000
AcDbSavedByObjectVersion
1070
     0
  0
VISUALSTYLE
  5
38
102
{ACAD_REACTORS
330
2A
102
}
102
{ACAD_XDICTIONARY
360
28A
102
}
330
2A
100
AcDbVisualStyle
  2
Linepattern
 70
    14
 71
     2
 72
     2
 73
     0
 90
        0
 40
-0.6
 41
-30.0
 62
     5
 63
     7
 74
     1
 91
        4
 64
     7
 65
   257
 75
     7
175
     7
 42
1.0
 92
        8
 66
     7
 43
1.0
 76
     1
 77
     6
 78
     2
 67
     7
 79
     5
170
     0
171
     0
290
     0
174
     0
 93
        1
 44
0.0
173
     0
291
     1
 45
0.0
1001
ACAD
1000
AcDbSavedByObjectVersion
1070
     0
  0
VISUALSTYLE
  5
33
102
{ACAD_REACTORS
330
2A
102
}
102
{ACAD_XDICTIONARY
360
280
102
}
330
2A
100
AcDbVisualStyle
  2
Realistic
 70
     8
 71
     2
 72
     2
 73
     0
 90
        0
 40
-0.6
 41
-30.0
 62
     5
 63
     7
 74
     1
 91
        0
 64
     7
 65
   257
 75
     1
175
     1
 42
1.0
 92
        8
 66
     8
 43
1.0
 76
     1
 77
     6
 78
     2
 67
     7
 79
     5
170
     0
171
     0
290
     0
174
     0
 93
       13
 44
0.0
173
     0
291
     0
 45
0.0
1001
ACAD
1000
AcDbSavedByObjectVersion
1070
     0
  0
VISUALSTYLE
  5
37
102
{ACAD_REACTORS
330
2A
102
}
102
{ACAD_XDICTIONARY
360
288
102
}
330
2A
100
AcDbVisualStyle
  2
Thicken
 70
    13
 71
     2
 72
     2
 73
     0
 90
        0
 40
-0.6
 41
-30.0
 62
     5
 63
     7
 74
     1
 91
        4
 64
     7
 65
   257
 75
     1
175
     1
 42
1.0
 92
       12
 66
     7
 43
1.0
 76
     1
 77
     6
 78
     2
 67
     7
 79
     5
170
     0
171
     0
290
     0
174
     0
 93
        1
 44
0.0
173
     0
291
     1
 45
0.0
1001
ACAD
1000
AcDbSavedByObjectVersion
1070
     0
  0
DICTIONARYVAR
  5
26D
102
{ACAD_REACTORS
330
26A
102
}
330
26A
100
DictionaryVariables
280
     0
  1
1:1
  0
DICTIONARYVAR
  5
26E
102
{ACAD_REACTORS
330
26A
102
}
330
26A
100
DictionaryVariables
280
     0
  1
2
  0
DICTIONARYVAR
  5
26F
102
{ACAD_REACTORS
330
26A
102
}
330
26A
100
DictionaryVariables
280
     0
  1
1
  0
DICTIONARY
  5
292
330
3D
100
AcDbDictionary
280
     1
281
     1
  3
ACAD_XREC_ROUNDTRIP
360
293
  0
DICTIONARY
  5
290
330
3C
100
AcDbDictionary
280
     1
281
     1
  3
ACAD_XREC_ROUNDTRIP
360
291
  0
DICTIONARY
  5
294
330
3E
100
AcDbDictionary
280
     1
281
     1
  3
ACAD_XREC_ROUNDTRIP
360
295
  0
DICTIONARY
  5
278
330
2F
100
AcDbDictionary
280
     1
281
     1
  3
ACAD_XREC_ROUNDTRIP
360
279
  0
DICTIONARY
  5
27C
330
31
100
AcDbDictionary
280
     1
281
     1
  3
ACAD_XREC_ROUNDTRIP
360
27D
  0
DICTIONARY
  5
27A
330
30
100
AcDbDictionary
280
     1
281
     1
  3
ACAD_XREC_ROUNDTRIP
360
27B
  0
DICTIONARY
  5
27E
330
32
100
AcDbDictionary
280
     1
281
     1
  3
ACAD_XREC_ROUNDTRIP
360
27F
  0
DICTIONARY
  5
286
330
36
100
AcDbDictionary
280
     1
281
     1
  3
ACAD_XREC_ROUNDTRIP
360
287
  0
DICTIONARY
  5
28E
330
3A
100
AcDbDictionary
280
     1
281
     1
  3
ACAD_XREC_ROUNDTRIP
360
28F
  0
DICTIONARY
  5
282
330
34
100
AcDbDictionary
280
     1
281
     1
  3
ACAD_XREC_ROUNDTRIP
360
283
  0
DICTIONARY
  5
284
330
35
100
AcDbDictionary
280
     1
281
     1
  3
ACAD_XREC_ROUNDTRIP
360
285
  0
DICTIONARY
  5
28C
330
39
100
AcDbDictionary
280
     1
281
     1
  3
ACAD_XREC_ROUNDTRIP
360
28D
  0
DICTIONARY
  5
270
330
2B
100
AcDbDictionary
280
     1
281
     1
  3
ACAD_XREC_ROUNDTRIP
360
271
  0
DICTIONARY
  5
272
330
2C
100
AcDbDictionary
280
     1
281
     1
  3
ACAD_XREC_ROUNDTRIP
360
273
  0
DICTIONARY
  5
274
330
2D
100
AcDbDictionary
280
     1
281
     1
  3
ACAD_XREC_ROUNDTRIP
360
275
  0
DICTIONARY
  5
276
330
2E
100
AcDbDictionary
280
     1
281
     1
  3
ACAD_XREC_ROUNDTRIP
360
277
  0
DICTIONARY
  5
28A
330
38
100
AcDbDictionary
280
     1
281
     1
  3
ACAD_XREC_ROUNDTRIP
360
28B
  0
DICTIONARY
  5
280
330
33
100
AcDbDictionary
280
     1
281
     1
  3
ACAD_XREC_ROUNDTRIP
360
281
  0
DICTIONARY
  5
288
330
37
100
AcDbDictionary
280
     1
281
     1
  3
ACAD_XREC_ROUNDTRIP
360
289
  0
XRECORD
  5
293
102
{ACAD_REACTORS
330
292
102
}
330
292
100
AcDbXrecord
280
     1
102
MATERIAL
148
0.0
149
0.0
149
0.0
 93
        0
 94
      127
282
     0
 72
     1
 77
     1
171
     1
175
     1
179
     1
273
     0
  0
XRECORD
  5
291
102
{ACAD_REACTORS
330
290
102
}
330
290
100
AcDbXrecord
280
     1
102
MATERIAL
148
0.0
149
0.0
149
0.0
 93
        0
 94
      127
282
     0
 72
     1
 77
     1
171
     1
175
     1
179
     1
273
     0
  0
XRECORD
  5
295
102
{ACAD_REACTORS
330
294
102
}
330
294
100
AcDbXrecord
280
     1
102
MATERIAL
148
0.0
149
0.0
149
0.0
 93
        0
 94
      127
282
     0
 72
     1
 77
     1
171
     1
175
     1
179
     1
273
     0
  0
XRECORD
  5
279
102
{ACAD_REACTORS
330
278
102
}
330
278
100
AcDbXrecord
280
     1
102
RTVSPropertyOp0
 70
     1
102
RTVSPropertyOp1
 70
     1
102
RTVSPropertyOp2
 70
     1
102
RTVSPropertyOp3
 70
     1
102
RTVSPropertyOp4
 70
     1
102
RTVSPropertyOp5
 70
     1
102
RTVSPropertyOp6
 70
     1
102
RTVSPropertyOp7
 70
     1
102
RTVSPropertyOp8
 70
     1
102
RTVSPropertyOp9
 70
     1
102
RTVSPropertyOp10
 70
     1
102
RTVSPropertyOp11
 70
     1
102
RTVSPropertyOp12
 70
     1
102
RTVSPropertyOp13
 70
     1
102
RTVSPropertyOp14
 70
     1
102
RTVSPropertyOp15
 70
     1
102
RTVSPropertyOp16
 70
     1
102
RTVSPropertyOp17
 70
     1
102
RTVSPropertyOp18
 70
     1
102
RTVSPropertyOp19
 70
     1
102
RTVSPropertyOp20
 70
     1
102
RTVSPropertyOp21
 70
     1
102
RTVSPropertyOp22
 70
     1
102
RTVSPropertyOp23
 70
     1
102
RTVSPropertyOp24
 70
     1
102
RTVSPropertyOp25
 70
     1
102
RTVSPropertyOp26
 70
     1
102
RTVSPropertyOp27
 70
     1
  0
XRECORD
  5
27D
102
{ACAD_REACTORS
330
27C
102
}
330
27C
100
AcDbXrecord
280
     1
102
RTVSPropertyOp0
 70
     1
102
RTVSPropertyOp1
 70
     1
102
RTVSPropertyOp2
 70
     1
102
RTVSPropertyOp3
 70
     1
102
RTVSPropertyOp4
 70
     1
102
RTVSPropertyOp5
 70
     1
102
RTVSPropertyOp6
 70
     1
102
RTVSPropertyOp7
 70
     1
102
RTVSPropertyOp8
 70
     1
102
RTVSPropertyOp9
 70
     1
102
RTVSPropertyOp10
 70
     1
102
RTVSPropertyOp11
 70
     1
102
RTVSPropertyOp12
 70
     1
102
RTVSPropertyOp13
 70
     1
102
RTVSPropertyOp14
 70
     1
102
RTVSPropertyOp15
 70
     1
102
RTVSPropertyOp16
 70
     1
102
RTVSPropertyOp17
 70
     1
102
RTVSPropertyOp18
 70
     1
102
RTVSPropertyOp19
 70
     1
102
RTVSPropertyOp20
 70
     1
102
RTVSPropertyOp21
 70
     1
102
RTVSPropertyOp22
 70
     1
102
RTVSPropertyOp23
 70
     1
102
RTVSPropertyOp24
 70
     1
102
RTVSPropertyOp25
 70
     1
102
RTVSPropertyOp26
 70
     1
102
RTVSPropertyOp27
 70
     1
  0
XRECORD
  5
27B
102
{ACAD_REACTORS
330
27A
102
}
330
27A
100
AcDbXrecord
280
     1
102
RTVSPropertyOp0
 70
     1
102
RTVSPropertyOp1
 70
     1
102
RTVSPropertyOp2
 70
     1
102
RTVSPropertyOp3
 70
     1
102
RTVSPropertyOp4
 70
     1
102
RTVSPropertyOp5
 70
     1
102
RTVSPropertyOp6
 70
     1
102
RTVSPropertyOp7
 70
     1
102
RTVSPropertyOp8
 70
     1
102
RTVSPropertyOp9
 70
     1
102
RTVSPropertyOp10
 70
     1
102
RTVSPropertyOp11
 70
     1
102
RTVSPropertyOp12
 70
     1
102
RTVSPropertyOp13
 70
     1
102
RTVSPropertyOp14
 70
     1
102
RTVSPropertyOp15
 70
     1
102
RTVSPropertyOp16
 70
     1
102
RTVSPropertyOp17
 70
     1
102
RTVSPropertyOp18
 70
     1
102
RTVSPropertyOp19
 70
     1
102
RTVSPropertyOp20
 70
     1
102
RTVSPropertyOp21
 70
     1
102
RTVSPropertyOp22
 70
     1
102
RTVSPropertyOp23
 70
     1
102
RTVSPropertyOp24
 70
     1
102
RTVSPropertyOp25
 70
     1
102
RTVSPropertyOp26
 70
     1
102
RTVSPropertyOp27
 70
     1
  0
XRECORD
  5
27F
102
{ACAD_REACTORS
330
27E
102
}
330
27E
100
AcDbXrecord
280
     1
102
RTVSPropertyOp0
 70
     1
102
RTVSPropertyOp1
 70
     1
102
RTVSPropertyOp2
 70
     1
102
RTVSPropertyOp3
 70
     1
102
RTVSPropertyOp4
 70
     1
102
RTVSPropertyOp5
 70
     1
102
RTVSPropertyOp6
 70
     1
102
RTVSPropertyOp7
 70
     1
102
RTVSPropertyOp8
 70
     1
102
RTVSPropertyOp9
 70
     1
102
RTVSPropertyOp10
 70
     1
102
RTVSPropertyOp11
 70
     1
102
RTVSPropertyOp12
 70
     1
102
RTVSPropertyOp13
 70
     1
102
RTVSPropertyOp14
 70
     1
102
RTVSPropertyOp15
 70
     1
102
RTVSPropertyOp16
 70
     1
102
RTVSPropertyOp17
 70
     1
102
RTVSPropertyOp18
 70
     1
102
RTVSPropertyOp19
 70
     1
102
RTVSPropertyOp20
 70
     1
102
RTVSPropertyOp21
 70
     1
102
RTVSPropertyOp22
 70
     1
102
RTVSPropertyOp23
 70
     1
102
RTVSPropertyOp24
 70
     1
102
RTVSPropertyOp25
 70
     1
102
RTVSPropertyOp26
 70
     1
102
RTVSPropertyOp27
 70
     1
  0
XRECORD
  5
287
102
{ACAD_REACTORS
330
286
102
}
330
286
100
AcDbXrecord
280
     1
102
RTVSPropertyOp0
 70
     1
102
RTVSPropertyOp1
 70
     1
102
RTVSPropertyOp2
 70
     1
102
RTVSPropertyOp3
 70
     1
102
RTVSPropertyOp4
 70
     1
102
RTVSPropertyOp5
 70
     1
102
RTVSPropertyOp6
 70
     1
102
RTVSPropertyOp7
 70
     1
102
RTVSPropertyOp8
 70
     1
102
RTVSPropertyOp9
 70
     1
102
RTVSPropertyOp10
 70
     1
102
RTVSPropertyOp11
 70
     1
102
RTVSPropertyOp12
 70
     1
102
RTVSPropertyOp13
 70
     1
102
RTVSPropertyOp14
 70
     1
102
RTVSPropertyOp15
 70
     1
102
RTVSPropertyOp16
 70
     1
102
RTVSPropertyOp17
 70
     1
102
RTVSPropertyOp18
 70
     1
102
RTVSPropertyOp19
 70
     1
102
RTVSPropertyOp20
 70
     1
102
RTVSPropertyOp21
 70
     1
102
RTVSPropertyOp22
 70
     1
102
RTVSPropertyOp23
 70
     1
102
RTVSPropertyOp24
 70
     1
102
RTVSPropertyOp25
 70
     1
102
RTVSPropertyOp26
 70
     1
102
RTVSPropertyOp27
 70
     1
  0
XRECORD
  5
28F
102
{ACAD_REACTORS
330
28E
102
}
330
28E
100
AcDbXrecord
280
     1
102
RTVSPropertyOp0
 70
     1
102
RTVSPropertyOp1
 70
     1
102
RTVSPropertyOp2
 70
     1
102
RTVSPropertyOp3
 70
     1
102
RTVSPropertyOp4
 70
     1
102
RTVSPropertyOp5
 70
     1
102
RTVSPropertyOp6
 70
     1
102
RTVSPropertyOp7
 70
     1
102
RTVSPropertyOp8
 70
     1
102
RTVSPropertyOp9
 70
     1
102
RTVSPropertyOp10
 70
     1
102
RTVSPropertyOp11
 70
     1
102
RTVSPropertyOp12
 70
     1
102
RTVSPropertyOp13
 70
     1
102
RTVSPropertyOp14
 70
     1
102
RTVSPropertyOp15
 70
     1
102
RTVSPropertyOp16
 70
     1
102
RTVSPropertyOp17
 70
     1
102
RTVSPropertyOp18
 70
     1
102
RTVSPropertyOp19
 70
     1
102
RTVSPropertyOp20
 70
     1
102
RTVSPropertyOp21
 70
     1
102
RTVSPropertyOp22
 70
     1
102
RTVSPropertyOp23
 70
     1
102
RTVSPropertyOp24
 70
     1
102
RTVSPropertyOp25
 70
     1
102
RTVSPropertyOp26
 70
     1
102
RTVSPropertyOp27
 70
     1
  0
XRECORD
  5
283
102
{ACAD_REACTORS
330
282
102
}
330
282
100
AcDbXrecord
280
     1
102
RTVSPropertyOp0
 70
     1
102
RTVSPropertyOp1
 70
     1
102
RTVSPropertyOp2
 70
     1
102
RTVSPropertyOp3
 70
     1
102
RTVSPropertyOp4
 70
     1
102
RTVSPropertyOp5
 70
     1
102
RTVSPropertyOp6
 70
     1
102
RTVSPropertyOp7
 70
     1
102
RTVSPropertyOp8
 70
     1
102
RTVSPropertyOp9
 70
     1
102
RTVSPropertyOp10
 70
     1
102
RTVSPropertyOp11
 70
     1
102
RTVSPropertyOp12
 70
     1
102
RTVSPropertyOp13
 70
     1
102
RTVSPropertyOp14
 70
     1
102
RTVSPropertyOp15
 70
     1
102
RTVSPropertyOp16
 70
     1
102
RTVSPropertyOp17
 70
     1
102
RTVSPropertyOp18
 70
     1
102
RTVSPropertyOp19
 70
     1
102
RTVSPropertyOp20
 70
     1
102
RTVSPropertyOp21
 70
     1
102
RTVSPropertyOp22
 70
     1
102
RTVSPropertyOp23
 70
     1
102
RTVSPropertyOp24
 70
     1
102
RTVSPropertyOp25
 70
     1
102
RTVSPropertyOp26
 70
     1
102
RTVSPropertyOp27
 70
     1
  0
XRECORD
  5
285
102
{ACAD_REACTORS
330
284
102
}
330
284
100
AcDbXrecord
280
     1
102
RTVSPropertyOp0
 70
     1
102
RTVSPropertyOp1
 70
     1
102
RTVSPropertyOp2
 70
     1
102
RTVSPropertyOp3
 70
     1
102
RTVSPropertyOp4
 70
     1
102
RTVSPropertyOp5
 70
     1
102
RTVSPropertyOp6
 70
     1
102
RTVSPropertyOp7
 70
     1
102
RTVSPropertyOp8
 70
     1
102
RTVSPropertyOp9
 70
     1
102
RTVSPropertyOp10
 70
     1
102
RTVSPropertyOp11
 70
     1
102
RTVSPropertyOp12
 70
     1
102
RTVSPropertyOp13
 70
     1
102
RTVSPropertyOp14
 70
     1
102
RTVSPropertyOp15
 70
     1
102
RTVSPropertyOp16
 70
     1
102
RTVSPropertyOp17
 70
     1
102
RTVSPropertyOp18
 70
     1
102
RTVSPropertyOp19
 70
     1
102
RTVSPropertyOp20
 70
     1
102
RTVSPropertyOp21
 70
     1
102
RTVSPropertyOp22
 70
     1
102
RTVSPropertyOp23
 70
     1
102
RTVSPropertyOp24
 70
     1
102
RTVSPropertyOp25
 70
     1
102
RTVSPropertyOp26
 70
     1
102
RTVSPropertyOp27
 70
     1
  0
XRECORD
  5
28D
102
{ACAD_REACTORS
330
28C
102
}
330
28C
100
AcDbXrecord
280
     1
102
RTVSPropertyOp0
 70
     1
102
RTVSPropertyOp1
 70
     1
102
RTVSPropertyOp2
 70
     1
102
RTVSPropertyOp3
 70
     1
102
RTVSPropertyOp4
 70
     1
102
RTVSPropertyOp5
 70
     1
102
RTVSPropertyOp6
 70
     1
102
RTVSPropertyOp7
 70
     1
102
RTVSPropertyOp8
 70
     1
102
RTVSPropertyOp9
 70
     1
102
RTVSPropertyOp10
 70
     1
102
RTVSPropertyOp11
 70
     1
102
RTVSPropertyOp12
 70
     1
102
RTVSPropertyOp13
 70
     1
102
RTVSPropertyOp14
 70
     1
102
RTVSPropertyOp15
 70
     1
102
RTVSPropertyOp16
 70
     1
102
RTVSPropertyOp17
 70
     1
102
RTVSPropertyOp18
 70
     1
102
RTVSPropertyOp19
 70
     1
102
RTVSPropertyOp20
 70
     1
102
RTVSPropertyOp21
 70
     1
102
RTVSPropertyOp22
 70
     1
102
RTVSPropertyOp23
 70
     1
102
RTVSPropertyOp24
 70
     1
102
RTVSPropertyOp25
 70
     1
102
RTVSPropertyOp26
 70
     1
102
RTVSPropertyOp27
 70
     1
  0
XRECORD
  5
271
102
{ACAD_REACTORS
330
270
102
}
330
270
100
AcDbXrecord
280
     1
102
RTVSPropertyOp0
 70
     1
102
RTVSPropertyOp1
 70
     1
102
RTVSPropertyOp2
 70
     1
102
RTVSPropertyOp3
 70
     1
102
RTVSPropertyOp4
 70
     1
102
RTVSPropertyOp5
 70
     1
102
RTVSPropertyOp6
 70
     1
102
RTVSPropertyOp7
 70
     1
102
RTVSPropertyOp8
 70
     1
102
RTVSPropertyOp9
 70
     1
102
RTVSPropertyOp10
 70
     1
102
RTVSPropertyOp11
 70
     1
102
RTVSPropertyOp12
 70
     1
102
RTVSPropertyOp13
 70
     1
102
RTVSPropertyOp14
 70
     1
102
RTVSPropertyOp15
 70
     1
102
RTVSPropertyOp16
 70
     1
102
RTVSPropertyOp17
 70
     1
102
RTVSPropertyOp18
 70
     1
102
RTVSPropertyOp19
 70
     1
102
RTVSPropertyOp20
 70
     1
102
RTVSPropertyOp21
 70
     1
102
RTVSPropertyOp22
 70
     1
102
RTVSPropertyOp23
 70
     1
102
RTVSPropertyOp24
 70
     1
102
RTVSPropertyOp25
 70
     1
102
RTVSPropertyOp26
 70
     1
102
RTVSPropertyOp27
 70
     1
  0
XRECORD
  5
273
102
{ACAD_REACTORS
330
272
102
}
330
272
100
AcDbXrecord
280
     1
102
RTVSPropertyOp0
 70
     1
102
RTVSPropertyOp1
 70
     1
102
RTVSPropertyOp2
 70
     1
102
RTVSPropertyOp3
 70
     1
102
RTVSPropertyOp4
 70
     1
102
RTVSPropertyOp5
 70
     1
102
RTVSPropertyOp6
 70
     1
102
RTVSPropertyOp7
 70
     1
102
RTVSPropertyOp8
 70
     1
102
RTVSPropertyOp9
 70
     1
102
RTVSPropertyOp10
 70
     1
102
RTVSPropertyOp11
 70
     1
102
RTVSPropertyOp12
 70
     1
102
RTVSPropertyOp13
 70
     1
102
RTVSPropertyOp14
 70
     1
102
RTVSPropertyOp15
 70
     1
102
RTVSPropertyOp16
 70
     1
102
RTVSPropertyOp17
 70
     1
102
RTVSPropertyOp18
 70
     1
102
RTVSPropertyOp19
 70
     1
102
RTVSPropertyOp20
 70
     1
102
RTVSPropertyOp21
 70
     1
102
RTVSPropertyOp22
 70
     1
102
RTVSPropertyOp23
 70
     1
102
RTVSPropertyOp24
 70
     1
102
RTVSPropertyOp25
 70
     1
102
RTVSPropertyOp26
 70
     1
102
RTVSPropertyOp27
 70
     1
  0
XRECORD
  5
275
102
{ACAD_REACTORS
330
274
102
}
330
274
100
AcDbXrecord
280
     1
102
RTVSPropertyOp0
 70
     1
102
RTVSPropertyOp1
 70
     1
102
RTVSPropertyOp2
 70
     1
102
RTVSPropertyOp3
 70
     1
102
RTVSPropertyOp4
 70
     1
102
RTVSPropertyOp5
 70
     1
102
RTVSPropertyOp6
 70
     1
102
RTVSPropertyOp7
 70
     1
102
RTVSPropertyOp8
 70
     1
102
RTVSPropertyOp9
 70
     1
102
RTVSPropertyOp10
 70
     1
102
RTVSPropertyOp11
 70
     1
102
RTVSPropertyOp12
 70
     1
102
RTVSPropertyOp13
 70
     1
102
RTVSPropertyOp14
 70
     1
102
RTVSPropertyOp15
 70
     1
102
RTVSPropertyOp16
 70
     1
102
RTVSPropertyOp17
 70
     1
102
RTVSPropertyOp18
 70
     1
102
RTVSPropertyOp19
 70
     1
102
RTVSPropertyOp20
 70
     1
102
RTVSPropertyOp21
 70
     1
102
RTVSPropertyOp22
 70
     1
102
RTVSPropertyOp23
 70
     1
102
RTVSPropertyOp24
 70
     1
102
RTVSPropertyOp25
 70
     1
102
RTVSPropertyOp26
 70
     1
102
RTVSPropertyOp27
 70
     1
  0
XRECORD
  5
277
102
{ACAD_REACTORS
330
276
102
}
330
276
100
AcDbXrecord
280
     1
102
RTVSPropertyOp0
 70
     1
102
RTVSPropertyOp1
 70
     1
102
RTVSPropertyOp2
 70
     1
102
RTVSPropertyOp3
 70
     1
102
RTVSPropertyOp4
 70
     1
102
RTVSPropertyOp5
 70
     1
102
RTVSPropertyOp6
 70
     1
102
RTVSPropertyOp7
 70
     1
102
RTVSPropertyOp8
 70
     1
102
RTVSPropertyOp9
 70
     1
102
RTVSPropertyOp10
 70
     1
102
RTVSPropertyOp11
 70
     1
102
RTVSPropertyOp12
 70
     1
102
RTVSPropertyOp13
 70
     1
102
RTVSPropertyOp14
 70
     1
102
RTVSPropertyOp15
 70
     1
102
RTVSPropertyOp16
 70
     1
102
RTVSPropertyOp17
 70
     1
102
RTVSPropertyOp18
 70
     1
102
RTVSPropertyOp19
 70
     1
102
RTVSPropertyOp20
 70
     1
102
RTVSPropertyOp21
 70
     1
102
RTVSPropertyOp22
 70
     1
102
RTVSPropertyOp23
 70
     1
102
RTVSPropertyOp24
 70
     1
102
RTVSPropertyOp25
 70
     1
102
RTVSPropertyOp26
 70
     1
102
RTVSPropertyOp27
 70
     1
  0
XRECORD
  5
28B
102
{ACAD_REACTORS
330
28A
102
}
330
28A
100
AcDbXrecord
280
     1
102
RTVSPropertyOp0
 70
     1
102
RTVSPropertyOp1
 70
     1
102
RTVSPropertyOp2
 70
     1
102
RTVSPropertyOp3
 70
     1
102
RTVSPropertyOp4
 70
     1
102
RTVSPropertyOp5
 70
     1
102
RTVSPropertyOp6
 70
     1
102
RTVSPropertyOp7
 70
     1
102
RTVSPropertyOp8
 70
     1
102
RTVSPropertyOp9
 70
     1
102
RTVSPropertyOp10
 70
     1
102
RTVSPropertyOp11
 70
     1
102
RTVSPropertyOp12
 70
     1
102
RTVSPropertyOp13
 70
     1
102
RTVSPropertyOp14
 70
     1
102
RTVSPropertyOp15
 70
     1
102
RTVSPropertyOp16
 70
     1
102
RTVSPropertyOp17
 70
     1
102
RTVSPropertyOp18
 70
     1
102
RTVSPropertyOp19
 70
     1
102
RTVSPropertyOp20
 70
     1
102
RTVSPropertyOp21
 70
     1
102
RTVSPropertyOp22
 70
     1
102
RTVSPropertyOp23
 70
     1
102
RTVSPropertyOp24
 70
     1
102
RTVSPropertyOp25
 70
     1
102
RTVSPropertyOp26
 70
     1
102
RTVSPropertyOp27
 70
     1
  0
XRECORD
  5
281
102
{ACAD_REACTORS
330
280
102
}
330
280
100
AcDbXrecord
280
     1
102
RTVSPropertyOp0
 70
     1
102
RTVSPropertyOp1
 70
     1
102
RTVSPropertyOp2
 70
     1
102
RTVSPropertyOp3
 70
     1
102
RTVSPropertyOp4
 70
     1
102
RTVSPropertyOp5
 70
     1
102
RTVSPropertyOp6
 70
     1
102
RTVSPropertyOp7
 70
     1
102
RTVSPropertyOp8
 70
     1
102
RTVSPropertyOp9
 70
     1
102
RTVSPropertyOp10
 70
     1
102
RTVSPropertyOp11
 70
     1
102
RTVSPropertyOp12
 70
     1
102
RTVSPropertyOp13
 70
     1
102
RTVSPropertyOp14
 70
     1
102
RTVSPropertyOp15
 70
     1
102
RTVSPropertyOp16
 70
     1
102
RTVSPropertyOp17
 70
     1
102
RTVSPropertyOp18
 70
     1
102
RTVSPropertyOp19
 70
     1
102
RTVSPropertyOp20
 70
     1
102
RTVSPropertyOp21
 70
     1
102
RTVSPropertyOp22
 70
     1
102
RTVSPropertyOp23
 70
     1
102
RTVSPropertyOp24
 70
     1
102
RTVSPropertyOp25
 70
     1
102
RTVSPropertyOp26
 70
     1
102
RTVSPropertyOp27
 70
     1
  0
XRECORD
  5
289
102
{ACAD_REACTORS
330
288
102
}
330
288
100
AcDbXrecord
280
     1
102
RTVSPropertyOp0
 70
     1
102
RTVSPropertyOp1
 70
     1
102
RTVSPropertyOp2
 70
     1
102
RTVSPropertyOp3
 70
     1
102
RTVSPropertyOp4
 70
     1
102
RTVSPropertyOp5
 70
     1
102
RTVSPropertyOp6
 70
     1
102
RTVSPropertyOp7
 70
     1
102
RTVSPropertyOp8
 70
     1
102
RTVSPropertyOp9
 70
     1
102
RTVSPropertyOp10
 70
     1
102
RTVSPropertyOp11
 70
     1
102
RTVSPropertyOp12
 70
     1
102
RTVSPropertyOp13
 70
     1
102
RTVSPropertyOp14
 70
     1
102
RTVSPropertyOp15
 70
     1
102
RTVSPropertyOp16
 70
     1
102
RTVSPropertyOp17
 70
     1
102
RTVSPropertyOp18
 70
     1
102
RTVSPropertyOp19
 70
     1
102
RTVSPropertyOp20
 70
     1
102
RTVSPropertyOp21
 70
     1
102
RTVSPropertyOp22
 70
     1
102
RTVSPropertyOp23
 70
     1
102
RTVSPropertyOp24
 70
     1
102
RTVSPropertyOp25
 70
     1
102
RTVSPropertyOp26
 70
     1
102
RTVSPropertyOp27
 70
     1
  0
ENDSEC
  0
EOF
